<?xml version="1.0" standalone="no"?>
<!DOCTYPE svg PUBLIC "-//W3C//DTD SVG 1.1//EN" "http://www.w3.org/Graphics/SVG/1.1/DTD/svg11.dtd">
<svg xmlns="http://www.w3.org/2000/svg">
<defs >
<font id="PlayfairDisplay" horiz-adv-x="579" ><font-face
    font-family="Playfair Display"
    units-per-em="1000"
    panose-1="0 0 0 0 0 0 0 0 0 0"
    ascent="1082"
    descent="-251"
    alphabetic="0" />
<glyph unicode=" " horiz-adv-x="249" />
<glyph unicode="!" horiz-adv-x="262" d="M131 782Q150 782 163 769T177 726Q177 687 172 629T159 501T146 353T140 196V196H122Q122 275 117 352T104 500T91 629T85 726Q85 756 98 769T131 782ZM131 114Q157 114 176 95T195 50Q195 24 176 5T131 -14Q105 -14
86 5T67 50Q67 76 86 95T131 114Z" />
<glyph unicode="&quot;" horiz-adv-x="298" d="M95 730Q110 730 120 718T131 684Q131 651 127 623T117 559T102 468H88Q81 520 74 555T63 620T59 683Q59 705 69 717T95 730ZM204 730Q219 730 229 718T240 684Q240 651 236 623T226 559T211 468H197Q190 520 183
555T172 620T168 683Q168 705 178 717T204 730Z" />
<glyph unicode="#" horiz-adv-x="637" d="M471 602L374 101H354L451 602H471ZM553 267L549 247H48L52 267H553ZM284 602L187 101H167L264 602H284ZM589 454L586 434H85L88 454H589Z" />
<glyph unicode="$" horiz-adv-x="523" d="M247 719Q297 719 323 708T369 682Q381 675 388 672T403 668Q419 668 425 712H448Q447 695 446 672T444 610T443 508H420Q417 556 399 600T347 672T256 700Q203 700 169 668T134 584Q134 550 147 525T184 480T238 441T302
401Q354 369 394 338T458 268T482 176Q482 112 453 70T376 7T270 -14Q217 -14 186 -2T133 23Q121 31 113 34T99 37Q83 37 77 -7H54Q56 14 56 42T57 117T58 233H81Q85 173 103 121T160 38T263 6Q312 6 352 37T393 139Q393 169 382 194T350 240T301 281T237 322Q190
351 149 381T84 450T59 546Q59 605 85 643T155 700T247 719ZM232 840V-132H212V840H232ZM316 840V-132H296V840H316Z" />
<glyph unicode="%" horiz-adv-x="742" d="M184 761Q251 761 292 718T333 598Q333 522 291 476T184 430Q117 430 76 473T35 593Q35 668 77 714T184 761ZM554 299Q477 299 477 150Q477 77 499 41T558 4Q634 4 634 152Q634 226 613 262T554 299ZM556 317Q623 317
664 274T705 154Q705 78 663 32T556 -14Q489 -14 448 29T407 149Q407 224 449 270T556 317ZM182 743Q105 743 105 594Q105 521 127 485T186 448Q262 448 262 596Q262 670 241 706T182 743ZM660 824L679 811L94 -55L75 -42L660 824Z" />
<glyph unicode="&amp;" horiz-adv-x="837" d="M307 702Q345 702 370 694T411 672Q431 656 439 638T448 603Q448 578 431 564T392 550Q372 550 356 563T340 600Q340 622 355 637T393 655Q389 668 369 677T317 687Q266 687 234 657T201 568Q201 540 211 511T252
454Q269 457 287 458T314 460Q354 460 354 437Q354 428 347 423T326 418Q307 418 286 426T253 440Q195 423 159 385T123 276Q123 207 159 159T255 86T391 60Q444 60 491 72T575 109T633 166T654 243Q654 262 646 291T613 349T536 394L548 404Q621 382 652 334T683
225Q683 165 647 110T543 21T378 -14Q292 -14 218 16T99 102T54 235Q54 289 75 327T127 391T189 429T239 448Q189 470 164 505T138 577Q138 601 149 623T181 664T233 692T307 702ZM671 722Q733 722 775 687T817 587Q817 536 790 502T722 447Q699 436 662 423T582
397T501 372T438 350Q401 336 376 316T350 263Q350 237 365 219T401 192T442 183Q456 183 477 188T502 205Q486 208 471 219T455 256Q455 280 471 294T510 308Q534 308 548 293T563 254Q563 226 545 207T499 178T444 168Q416 168 387 180T339 217T320 285Q320 337
355 372T458 431Q488 441 531 453T619 479T702 510Q752 533 770 557T788 606Q788 649 754 678T672 707Q660 707 652 705T642 698Q656 691 663 678T670 652Q670 631 654 617T614 603Q595 603 578 615T561 653Q561 679 578 694T621 715T671 722Z" />
<glyph unicode="&apos;" horiz-adv-x="189" d="M95 730Q110 730 120 718T131 684Q131 651 127 623T117 559T102 468H88Q81 520 74 555T63 620T59 683Q59 705 69 717T95 730Z" />
<glyph unicode="(" horiz-adv-x="294" d="M264 806Q163 714 104 591T44 312Q44 157 103 34T264 -182L278 -169Q194 -71 161 45T128 312Q128 462 161 578T278 793L264 806Z" />
<glyph unicode=")" horiz-adv-x="294" d="M30 806Q131 714 190 591T250 312Q250 157 191 34T30 -182L16 -169Q100 -71 133 45T166 312Q166 462 133 578T16 793L30 806Z" />
<glyph unicode="*" horiz-adv-x="492" d="M363 629Q389 644 405 640T429 623Q436 612 431 596T400 565Q375 551 339 543T246 517L245 520Q285 558 312 586T363 629ZM247 520Q300 504 338 495T401 472Q427 457 431 441T428 412Q422 401 406 397T364 408Q339 422
313 449T245 517L247 520ZM248 518Q261 465 272 427T284 361Q283 331 271 319T245 307Q232 307 221 318T210 361Q210 390 221 426T245 518H248ZM245 519L247 516Q207 479 180 450T129 407Q103 392 87 396T63 413Q56 424 61 439T92 471Q117 485 153 494T245 519ZM128
628Q153 614 179 587T246 519L245 516Q193 532 155 541T91 564Q66 579 62 595T64 624Q70 635 86 639T128 628ZM246 729Q260 729 271 717T282 675Q282 647 272 611T247 518H244Q231 571 220 609T209 675Q209 705 221 717T246 729Z" />
<glyph unicode="+" horiz-adv-x="587" d="M312 606V370H544V340H312V105H276V340H43V370H276V606H312Z" />
<glyph unicode="," horiz-adv-x="261" d="M126 114Q148 114 162 105T185 82Q196 66 199 47T202 16Q202 -33 177 -73T99 -138L90 -120Q121 -107 143 -79T166 -22Q166 -10 163 -1Q147 -14 126 -14Q100 -14 81 3T62 50Q62 78 81 96T126 114Z" />
<glyph unicode="-" horiz-adv-x="499" d="M430 298V240H69V298H430Z" />
<glyph unicode="." horiz-adv-x="252" d="M126 114Q152 114 171 95T190 50Q190 24 171 5T126 -14Q100 -14 81 5T62 50Q62 76 81 95T126 114Z" />
<glyph unicode="/" horiz-adv-x="372" d="M339 722L67 -14H34L306 722H339Z" />
<glyph unicode="0" horiz-adv-x="600" d="M305 529Q376 529 430 497T516 405T547 266Q547 186 515 123T427 23T294 -14Q225 -14 170 18T84 110T52 250Q52 329 83 392T172 492T305 529ZM296 511Q232 511 191 443T149 253Q149 163 170 109T226 29T303 4Q368 4 409
72T450 263Q450 353 429 407T373 486T296 511Z" />
<glyph unicode="1" horiz-adv-x="370" d="M253 526V103Q253 55 275 38T349 21V0Q329 1 291 2T211 4Q165 4 123 3T57 0V21Q107 21 135 37T163 103V345Q163 393 153 416T118 446T47 453V475Q119 477 167 488T253 526Z" />
<glyph unicode="2" horiz-adv-x="479" d="M244 529Q313 529 353 497T394 403Q394 353 366 310T296 227T212 151T143 77H346Q387 77 398 88T413 128H430Q430 75 431 47T434 -5Q421 -2 376 -1T285 0H51V17Q81 50 123 87T204 169T270 266T297 381Q297 438 271 463T197
489Q157 489 123 466T63 395L47 404Q70 451 116 490T244 529Z" />
<glyph unicode="3" horiz-adv-x="451" d="M227 529Q289 529 330 499T371 415Q371 376 350 344T294 288T222 250Q269 249 311 233T380 183T407 98Q407 41 374 -5T287 -83T167 -133T37 -151V-133Q88 -132 137 -117T225 -72T288 0T312 98Q312 157 284 195T206 238Q191
232 180 228T159 223Q143 223 143 236Q143 245 151 250T169 255Q177 255 185 254T204 251Q245 282 263 319T281 395Q281 442 258 463T194 485Q153 485 119 463T61 396L44 404Q59 437 83 465T142 511T227 529Z" />
<glyph unicode="4" horiz-adv-x="494" d="M342 529L346 503L65 105L64 121H370Q411 121 422 132T437 172H454Q454 123 455 97T458 49Q449 51 425 52T370 53T309 54H17V75L342 529ZM358 529V-141H278V423L342 529H358Z" />
<glyph unicode="5" horiz-adv-x="415" d="M334 565Q334 508 335 476T338 419Q325 422 283 423T199 424H93L81 231Q103 242 130 251T198 261Q289 261 332 217T375 107Q375 49 346 2T269 -78T162 -130T45 -148V-130Q104 -129 157 -104T245 -29T280 97Q280 160 248
195T154 231Q128 231 111 227T72 214L62 220L81 518Q92 516 106 515T135 514H248Q289 514 300 525T315 565H334Z" />
<glyph unicode="6" horiz-adv-x="517" d="M394 723L398 703Q357 690 314 666T234 594T175 470T152 272Q152 167 170 109T215 29T269 6Q313 6 347 53T382 213Q382 321 350 365T274 409Q252 409 226 399T178 366T146 299L136 293Q143 349 171 380T234 425T299 438Q346
438 387 413T453 339T479 220Q479 145 449 93T369 13T259 -14Q164 -14 110 60T55 270Q55 361 77 431T135 552T216 639T307 694T394 723Z" />
<glyph unicode="7" horiz-adv-x="406" d="M27 519Q41 516 86 515T176 514H398V493Q377 442 348 388T290 273T243 140T225 -18Q225 -34 226 -48T228 -74T229 -97Q229 -119 216 -133T182 -148Q159 -148 148 -131T137 -92Q137 -24 154 39T200 161T261 277T327 387T386
493L358 430H115Q74 430 63 419T48 379H31Q31 432 30 464T27 519Z" />
<glyph unicode="8" horiz-adv-x="520" d="M268 722Q336 722 384 688T433 585Q433 524 393 477T290 390L282 404Q320 436 336 479T353 572Q353 631 329 667T257 704Q217 704 190 676T163 597Q163 550 185 515T242 450T316 394T390 336T447 267T469 177Q469 120
441 77T365 10T253 -14Q200 -14 154 4T80 60T52 154Q52 231 103 286T226 374L234 360Q182 325 161 276T140 169Q140 126 151 89T189 28T259 4Q309 4 346 37T384 135Q384 184 363 221T307 289T235 350T162 410T107 479T85 566Q85 613 109 648T175 702T268 722Z"
/>
<glyph unicode="9" horiz-adv-x="509" d="M257 529Q352 529 406 460T461 265Q461 183 439 119T381 8T300 -72T209 -122T122 -148L118 -128Q159 -116 202 -94T282 -30T341 83T364 263Q364 361 346 414T302 488T247 509Q203 509 169 462T134 302Q134 194 166 150T242
106Q264 106 290 116T338 150T370 216L380 222Q373 166 345 135T282 90T217 77Q171 77 130 102T63 176T37 295Q37 370 67 422T147 502T257 529Z" />
<glyph unicode=":" horiz-adv-x="266" d="M133 528Q159 528 178 509T197 464Q197 438 178 419T133 400Q107 400 88 419T69 464Q69 490 88 509T133 528ZM133 114Q159 114 178 95T197 50Q197 24 178 5T133 -14Q107 -14 88 5T69 50Q69 76 88 95T133 114Z" />
<glyph unicode=";" horiz-adv-x="285" d="M137 114Q159 114 173 105T196 82Q207 66 210 47T213 16Q213 -33 188 -73T110 -138L101 -120Q132 -107 154 -79T177 -22Q177 -10 174 -1Q158 -14 137 -14Q111 -14 92 3T73 50Q73 78 92 96T137 114ZM144 528Q170 528 189
509T208 464Q208 438 189 419T144 400Q118 400 99 419T80 464Q80 490 99 509T144 528Z" />
<glyph unicode="&lt;" horiz-adv-x="608" d="M517 582L534 546L125 355L534 164L517 128L30 355L517 582Z" />
<glyph unicode="=" horiz-adv-x="647" d="M574 440V410H73V440H574ZM574 300V270H73V300H574Z" />
<glyph unicode="&gt;" horiz-adv-x="608" d="M91 582L74 546L483 355L74 164L91 128L578 355L91 582Z" />
<glyph unicode="?" horiz-adv-x="459" d="M215 782Q309 782 367 734T425 602Q425 517 363 462T200 380V234H180V389Q247 414 280 444T324 509T336 583Q336 678 297 720T196 762Q172 762 144 755T98 726Q117 722 128 709T140 675Q140 650 124 636T85 621Q62 621
47 636T32 674Q32 695 45 713T79 746Q100 760 133 771T215 782ZM191 114Q217 114 236 95T255 50Q255 24 236 5T191 -14Q165 -14 146 5T127 50Q127 76 146 95T191 114Z" />
<glyph unicode="@" horiz-adv-x="878" d="M532 668Q619 668 689 640T802 552T844 393Q844 309 817 241T747 125T653 52T554 26Q514 26 498 43T482 84T488 132T497 166L558 464Q581 464 605 467T648 478L564 111Q554 77 559 64T587 51Q616 51 656 73T734 139T798
247T824 394Q824 487 784 543T678 624T533 650Q441 650 358 610T209 499T107 338T69 145Q69 42 108 -21T215 -114T369 -143Q423 -143 474 -131T575 -89L582 -102Q545 -128 490 -144T368 -161Q275 -161 203 -129T90 -30T49 143Q49 244 86 338T189 506T343 624T532
668ZM478 478Q501 478 518 469T545 441T552 387L544 383Q544 409 537 425T516 448T482 455Q449 455 421 428T371 357T337 259T325 153Q325 104 338 80T377 56Q416 56 456 117T522 285L530 269Q508 186 482 132T423 52T343 26Q286 26 263 61T240 147Q240 204 261
262T316 369T393 448T478 478Z" />
<glyph unicode="A" horiz-adv-x="630" d="M323 713L567 84Q582 46 601 34T636 20V0Q616 2 587 2T529 3Q490 3 456 3T401 0V20Q452 22 466 37T460 104L274 601L290 614L116 162Q95 108 96 78T119 34T183 20V0Q155 2 125 2T68 3Q43 3 26 3T-7 0V20Q13 25 34 43T72
107L307 713Q311 713 315 713T323 713ZM445 288V268H147L157 288H445Z" />
<glyph unicode="B" horiz-adv-x="623" d="M42 708Q63 707 97 706T164 705Q211 705 254 706T315 707Q420 707 473 663T526 550Q526 515 512 482T464 421T374 376V374Q453 364 497 337T560 272T578 194Q578 109 515 55T338 0Q316 0 272 1T166 3Q131 3 97 3T42 0V20Q76
22 93 28T117 52T123 106V602Q123 639 117 656T94 680T42 688V708ZM290 688Q244 688 230 671T216 602V106Q216 54 230 39T291 23Q389 23 433 68T478 198Q478 275 437 317T300 359H197Q197 359 197 367T197 376H283Q342 376 374 398T418 458T430 539Q430 613 398
650T290 688Z" />
<glyph unicode="C" horiz-adv-x="688" d="M371 722Q437 722 479 703T555 657Q575 642 585 653T600 708H623Q621 671 620 618T619 478H596Q589 521 583 546T569 590T546 626Q515 667 468 685T369 704Q320 704 281 680T213 609T169 498T153 352Q153 268 170 204T217
95T289 29T379 6Q424 6 473 24T550 82Q572 111 580 145T596 240H619Q619 149 620 94T623 0H600Q596 43 587 54T555 51Q518 25 477 6T370 -14Q275 -14 204 29T93 153T53 348Q53 460 94 544T206 675T371 722Z" />
<glyph unicode="D" horiz-adv-x="723" d="M315 708Q494 708 581 619T668 362Q668 253 626 172T502 45T306 0Q284 0 241 1T166 3Q131 3 97 3T42 0V20Q76 22 93 28T117 52T123 106V602Q123 639 117 656T94 680T42 688V708Q63 707 97 706T164 705Q199 706 243 707T315
708ZM290 690Q244 690 230 673T216 604V104Q216 52 230 35T291 18Q400 18 460 57T544 173T568 358Q568 526 507 608T290 690Z" />
<glyph unicode="E" horiz-adv-x="609" d="M541 708Q537 673 536 640T534 590Q534 572 535 556T537 528H514Q508 587 497 621T460 670T380 685H297Q263 685 246 680T222 657T216 602V106Q216 70 222 52T245 29T297 23H370Q433 23 465 40T512 95T534 200H557Q554
173 554 128Q554 109 555 74T561 0Q510 2 446 2T332 3Q302 3 253 3T147 3T42 0V20Q76 22 93 28T117 52T123 106V602Q123 639 117 656T94 680T42 688V708Q91 707 147 706T252 705T332 705Q378 705 436 705T541 708ZM369 366Q369 366 369 356T369 346H186Q186 346
186 356T186 366H369ZM398 498Q394 441 394 411T395 356Q395 331 396 301T401 214H378Q374 246 369 276T345 326T282 346V366Q326 366 343 389T366 443T375 498H398Z" />
<glyph unicode="F" horiz-adv-x="569" d="M541 708Q537 670 536 635T534 580Q534 556 535 535T537 498H514Q507 568 495 608T453 667T360 685H297Q263 685 246 680T222 657T216 602V106Q216 70 223 52T253 28T317 20V0Q291 2 251 2T170 3Q131 3 97 3T42 0V20Q76
22 93 28T117 52T123 106V602Q123 639 117 656T94 680T42 688V708Q91 707 147 706T252 705T332 705Q378 705 436 705T541 708ZM386 356Q386 356 386 346T386 336H186Q186 336 186 346T186 356H386ZM405 488Q401 431 401 401T402 346Q402 321 403 291T408 204H385Q381
236 376 266T352 316T289 336V356Q333 356 350 379T373 433T382 488H405Z" />
<glyph unicode="G" horiz-adv-x="703" d="M376 722Q441 722 481 703T556 657Q569 647 576 647Q595 647 601 708H624Q622 671 621 618T620 478H597Q590 520 580 559T547 626Q518 663 471 683T374 704Q324 704 284 680T214 609T170 499T154 353Q154 173 212 90T392
6Q428 6 454 16T496 37Q515 50 520 61T525 92V188Q525 229 517 249T488 276T424 284V304Q442 303 466 303T516 302T565 301Q598 301 624 302T669 304V284Q636 282 627 268T618 198V0H598Q597 17 591 37T571 57Q565 57 559 54T538 40Q505 15 468 1T382 -14Q227 -14
141 80T54 342Q54 459 96 544T210 675T376 722Z" />
<glyph unicode="H" horiz-adv-x="757" d="M460 0V20Q494 22 511 28T535 52T541 106V602Q541 639 535 656T512 680T460 688V708Q483 707 518 706T587 705Q626 705 660 706T715 708V688Q681 687 664 681T640 657T634 602V106Q634 70 640 52T663 28T715 20V0Q694
2 660 2T587 3Q553 3 518 3T460 0ZM42 0V20Q76 22 93 28T117 52T123 106V602Q123 639 117 656T94 680T42 688V708Q63 707 97 706T170 705Q205 705 239 706T297 708V688Q263 687 246 681T222 657T216 602V106Q216 70 222 52T245 28T297 20V0Q274 2 240 2T170 3Q131
3 97 3T42 0ZM181 346V366H576V346H181Z" />
<glyph unicode="I" horiz-adv-x="339" d="M297 708V688Q263 687 246 681T222 657T216 602V106Q216 70 222 52T245 28T297 20V0Q274 2 240 2T170 3Q131 3 97 3T42 0V20Q76 22 93 28T117 52T123 106V602Q123 639 117 656T94 680T42 688V708Q63 707 97 706T170 705Q205
705 239 706T297 708Z" />
<glyph unicode="J" horiz-adv-x="326" d="M-20 -188V-169Q25 -168 55 -147T101 -78T117 52V602Q117 639 111 656T88 680T36 688V708Q57 707 91 706T162 705Q199 705 233 706T291 708V688Q257 687 240 681T216 657T210 602V236Q210 195 209 147T205 54T193 -25Q176
-95 122 -141T-20 -188Z" />
<glyph unicode="K" horiz-adv-x="655" d="M615 708V688Q584 684 555 668T497 615L304 368L326 417L566 81Q583 56 603 42T654 20V0Q630 2 595 2T534 3Q517 3 493 3T431 0V20Q465 22 474 32T467 65L321 285Q301 316 286 331T254 352T212 358V378Q254 379 282 394T330
434L426 556Q459 598 471 627T470 671T415 688V708Q444 707 474 706T530 705Q585 705 615 708ZM297 708V688Q263 687 246 681T222 657T216 602V106Q216 70 222 52T245 28T297 20V0Q274 2 240 2T170 3Q131 3 97 3T42 0V20Q76 22 93 28T117 52T123 106V602Q123 639
117 656T94 680T42 688V708Q63 707 97 706T170 705Q205 705 239 706T297 708Z" />
<glyph unicode="L" horiz-adv-x="588" d="M297 708V688Q263 687 246 681T222 657T216 602V106Q216 70 222 52T245 29T297 23H370Q433 23 465 41T512 100T534 210H557Q554 179 554 128Q554 109 555 74T561 0Q510 2 446 2T332 3Q302 3 253 3T147 3T42 0V20Q76 22
93 28T117 52T123 106V602Q123 639 117 656T94 680T42 688V708Q63 707 97 706T170 705Q205 705 239 706T297 708Z" />
<glyph unicode="M" horiz-adv-x="871" d="M829 708V688Q795 687 778 681T754 657T748 602V106Q748 70 754 52T777 28T829 20V0Q806 2 772 2T702 3Q663 3 629 3T574 0V20Q608 22 625 28T649 52T655 106V656L659 653L414 -5H398L146 644V116Q146 80 152 60T178 31T237
20V0Q219 2 190 2T135 3Q110 3 85 3T42 0V20Q76 22 93 30T117 59T123 116V602Q123 639 117 656T94 680T42 688V708Q59 707 84 706T135 705Q157 705 180 706T220 708L447 110L430 102L655 705Q667 705 678 705T702 705Q737 705 771 706T829 708Z" />
<glyph unicode="N" horiz-adv-x="706" d="M670 708V688Q636 687 619 678T595 649T589 592V-5Q583 -5 578 -5T566 -5L146 644V116Q146 80 152 60T178 31T237 20V0Q219 2 190 2T135 3Q110 3 85 3T42 0V20Q76 22 93 30T117 59T123 116V602Q123 639 117 656T94 680T42
688V708Q59 707 84 706T135 705Q157 705 177 706T213 708L566 164V592Q566 629 560 649T534 678T475 688V708Q493 707 522 706T577 705Q603 705 628 706T670 708Z" />
<glyph unicode="O" horiz-adv-x="741" d="M371 722Q466 722 537 679T648 556T688 360Q688 248 648 164T535 33T370 -14Q275 -14 204 29T93 153T53 348Q53 460 94 544T206 675T371 722ZM367 704Q302 704 254 659T180 535T153 352Q153 246 182 168T262 47T374 4Q439
4 487 49T561 173T588 356Q588 463 559 541T479 661T367 704Z" />
<glyph unicode="P" horiz-adv-x="585" d="M42 708Q63 707 97 706T164 705Q211 705 254 706T315 707Q436 707 496 652T556 510Q556 474 544 435T503 362T422 307T293 286H197V306H283Q354 306 391 333T442 404T456 499Q456 594 419 641T290 688Q244 688 230 671T216
602V106Q216 70 223 52T253 28T317 20V0Q291 2 251 2T170 3Q131 3 97 3T42 0V20Q76 22 93 28T117 52T123 106V602Q123 639 117 656T94 680T42 688V708Z" />
<glyph unicode="Q" horiz-adv-x="741" d="M748 -23L763 -29Q751 -70 736 -97T700 -143Q681 -160 649 -174T565 -188Q512 -188 463 -171T360 -128T243 -82Q236 -80 230 -78T219 -75Q200 -82 178 -86T136 -90Q116 -90 103 -85T90 -70Q90 -49 144 -49Q179 -49 219
-57Q255 -47 281 -35T334 -11T401 3L402 -13Q372 -16 350 -24T306 -43T254 -62Q304 -72 363 -83T477 -102T571 -110Q643 -110 684 -89T748 -23ZM371 722Q466 722 537 679T648 556T688 360Q688 248 648 164T535 33T370 -14Q275 -14 204 29T93 153T53 348Q53 460
94 544T206 675T371 722ZM367 704Q302 704 254 659T180 535T153 352Q153 246 182 168T262 47T374 4Q439 4 487 49T561 173T588 356Q588 463 559 541T479 661T367 704Z" />
<glyph unicode="R" horiz-adv-x="648" d="M42 708Q63 707 97 706T164 705Q211 705 254 706T315 707Q436 707 496 657T556 533Q556 503 544 469T503 405T422 356T293 336H197V356H283Q354 356 391 378T442 438T456 522Q456 601 419 644T290 688Q244 688 230 671T216
602V106Q216 70 222 52T245 28T297 20V0Q274 2 240 2T170 3Q131 3 97 3T42 0V20Q76 22 93 28T117 52T123 106V602Q123 639 117 656T94 680T42 688V708ZM201 353Q255 351 286 349T336 344T374 339Q441 328 470 299T514 207L539 105Q549 61 559 42T592 23Q609 24
620 34T645 61L660 50Q639 19 617 3T553 -14Q516 -14 488 8T446 94L424 194Q415 237 404 268T372 318T311 336H203L201 353Z" />
<glyph unicode="S" horiz-adv-x="540" d="M256 719Q306 719 332 708T378 682Q390 675 397 672T412 668Q428 668 434 712H457Q456 695 455 672T453 610T452 508H429Q426 556 408 600T356 672T265 700Q212 700 178 668T143 584Q143 539 166 509T227 454T311 401Q363
369 403 338T467 268T491 176Q491 112 462 70T385 7T279 -14Q226 -14 195 -2T142 23Q120 37 108 37Q92 37 86 -7H63Q65 14 65 42T66 117T67 233H90Q94 173 112 121T169 38T272 6Q321 6 361 37T402 139Q402 200 359 240T246 322Q199 351 158 381T93 450T68 546Q68
605 94 643T164 700T256 719Z" />
<glyph unicode="T" horiz-adv-x="621" d="M592 708Q588 670 587 635T585 580Q585 556 586 535T588 498H565Q558 568 546 608T504 667T411 685H357V116Q357 76 364 56T394 29T458 20V0Q432 2 392 2T311 3Q266 3 227 3T163 0V20Q205 22 227 29T256 56T264 116V685H210Q148
685 118 667T75 609T56 498H33Q35 514 35 535T36 580Q36 599 35 634T29 708Q71 707 120 706T220 705T311 705Q352 705 401 705T501 706T592 708Z" />
<glyph unicode="U" horiz-adv-x="682" d="M655 708V688Q621 687 604 678T580 649T574 592V291Q574 221 565 169T533 79Q508 37 460 12T350 -14Q302 -14 259 -3T182 40Q153 68 137 99T114 175T108 288V602Q108 639 102 656T79 680T27 688V708Q48 707 82 706T155
705Q190 705 224 706T282 708V688Q248 687 231 681T207 657T201 602V271Q201 203 211 146T254 55T359 21Q435 21 476 54T534 147T551 280V592Q551 629 543 649T514 678T460 688V708Q478 707 507 706T562 705Q588 705 613 706T655 708Z" />
<glyph unicode="V" horiz-adv-x="630" d="M637 708V688Q618 684 597 665T558 601L323 -5Q321 -5 319 -5T315 -5Q313 -5 311 -5T307 -5L63 624Q48 662 29 674T-6 688V708Q14 707 43 706T101 705Q140 705 174 706T229 708V688Q178 686 165 671T170 604L356 111L340
94L514 546Q535 600 534 630T511 674T447 688V708Q476 707 506 706T562 705Q588 705 605 706T637 708Z" />
<glyph unicode="W" horiz-adv-x="905" d="M907 708V688Q888 684 865 666T828 601L639 -5Q637 -5 635 -5T631 -5Q629 -5 627 -5T623 -5L411 624Q398 663 382 675T352 688V708Q370 707 397 706T449 705Q488 705 522 706T577 708V688Q547 687 530 682T510 660T519
604L668 143L654 131L786 546Q804 601 803 631T780 674T717 688V708Q746 707 776 706T832 705Q858 705 875 706T907 708ZM208 708V688Q182 686 171 678T159 653T170 604L325 131L300 106L440 553L455 529L290 -5Q288 -5 286 -5T282 -5Q280 -5 278 -5T274 -5L62
624Q49 663 29 675T-7 688V708Q13 707 42 706T100 705Q133 705 161 706T208 708Z" />
<glyph unicode="X" horiz-adv-x="634" d="M244 708V687Q194 687 183 677T186 643L560 71Q579 42 592 33T627 21V0Q614 1 591 2T541 4Q501 4 461 3T400 0V21Q450 21 464 27T464 55L84 637Q65 666 53 676T17 687V708Q30 707 54 706T103 704Q144 704 180 705T244
708ZM299 365Q299 365 303 352T308 339L185 156Q149 102 148 73T170 33T236 20V0Q217 1 192 1T143 2T101 3Q46 3 16 0V20Q47 25 74 48T129 112L299 365ZM606 708V688Q575 684 548 661T493 596L332 356Q332 356 329 369T326 382L440 552Q494 633 482 660T406 688V708Q435
707 465 706T521 705Q576 705 606 708Z" />
<glyph unicode="Y" horiz-adv-x="591" d="M588 708V688Q569 684 550 664T508 599L306 199H289L55 631Q35 668 22 677T-3 687V708Q17 707 38 706T85 705Q118 705 155 705T225 708V687Q200 687 181 681T156 659T165 614L334 290L326 284L459 549Q487 604 487 634T463
675T398 688V708Q427 707 457 706T513 705Q539 705 556 706T588 708ZM351 304V106Q351 70 357 52T380 28T432 20V0Q409 2 375 2T305 3Q266 3 232 3T177 0V20Q211 22 228 28T252 52T258 106V311L312 249L351 304Z" />
<glyph unicode="Z" horiz-adv-x="594" d="M550 708V688L151 23H347Q394 23 423 33T470 64T497 122T511 210H534Q531 179 531 128Q531 109 532 74T538 0Q483 2 414 2T289 3Q230 3 165 3T42 0V20L444 685H249Q187 685 154 667T107 609T85 498H62Q64 514 64 535T65
580Q65 599 64 634T58 708Q114 706 183 706T307 705Q364 705 429 705T550 708Z" />
<glyph unicode="[" horiz-adv-x="296" d="M263 772V753H182V-162H263V-181H92V772H263Z" />
<glyph unicode="\" horiz-adv-x="372" d="M33 722L305 -14H338L66 722H33Z" />
<glyph unicode="]" horiz-adv-x="296" d="M33 772V753H114V-162H33V-181H204V772H33Z" />
<glyph unicode="^" horiz-adv-x="536" d="M277 528Q300 472 349 420T464 336L456 322Q396 344 340 376T248 442Q220 409 174 377T80 322L72 336Q137 368 186 420T259 528H277Z" />
<glyph unicode="_" horiz-adv-x="591" d="M522 -115V-155H69V-115H522Z" />
<glyph unicode="`" horiz-adv-x="283" d="M64 813Q76 822 92 820T124 798Q139 779 152 753T183 692T233 608L222 599Q183 641 153 667T102 713T64 751Q49 771 50 787T64 813Z" />
<glyph unicode="a" horiz-adv-x="498" d="M163 -7Q98 -7 69 25T39 112Q39 154 59 181T112 226T179 256T247 281T299 308T320 346V408Q320 450 308 472T274 501T227 509Q202 509 174 502T128 473Q147 469 161 453T175 412Q175 387 159 373T118 358Q89 358 76 376T62
418Q62 444 75 460T108 490Q131 506 167 517T250 529Q291 529 320 520T368 492Q394 468 402 434T410 351V73Q410 49 417 38T441 26Q455 26 465 32T486 47L497 30Q476 14 457 4T406 -7Q354 -7 337 20T320 82Q288 29 248 11T163 -7ZM207 33Q237 33 266 50T320 109V305Q305
283 274 270T209 242T151 200T127 124Q127 78 150 56T207 33Z" />
<glyph unicode="b" horiz-adv-x="563" d="M326 529Q408 529 462 462T516 257Q516 167 486 107T404 16T293 -14Q243 -14 197 14T127 99L147 88Q172 48 209 29T285 9Q352 9 385 69T419 257Q419 338 406 392T366 472T297 499Q251 499 212 458T163 336L151 350Q162
435 210 482T326 529ZM170 783V52Q157 41 144 30T117 7T90 -16L73 -9Q77 5 78 19T80 49V663Q80 708 64 729T4 751V772Q36 769 66 769Q95 769 121 772T170 783Z" />
<glyph unicode="c" horiz-adv-x="486" d="M279 529Q311 529 341 521T395 497Q418 482 430 463T442 420Q442 393 427 379T389 364Q367 364 351 377T334 414Q334 437 346 451T376 469Q366 487 341 499T286 511Q261 511 236 499T190 460T156 385T143 266Q143 178
163 126T215 52T287 29Q326 29 366 52T432 132L451 125Q441 93 418 61T358 7T267 -14Q205 -14 155 18T76 109T46 251Q46 333 75 395T158 493T279 529Z" />
<glyph unicode="d" horiz-adv-x="581" d="M484 784V109Q484 64 500 43T560 21V0Q529 3 498 3Q469 3 443 0T394 -11V664Q394 709 378 730T318 752V773Q350 770 380 770Q409 770 435 773T484 784ZM274 529Q318 529 356 508T408 436L395 426Q381 468 352 487T282
506Q223 506 184 445T145 257Q145 176 160 123T206 43T281 16Q323 16 357 52T398 158L410 144Q402 68 362 27T252 -14Q190 -14 144 16T73 106T48 257Q48 348 79 408T162 499T274 529Z" />
<glyph unicode="e" horiz-adv-x="506" d="M272 529Q360 529 409 476T459 309H106L105 328H363Q365 377 355 418T324 485T268 510Q222 510 187 464T144 318L147 314Q145 299 144 281T143 245Q143 177 165 128T222 54T296 28Q341 28 379 50T443 128L463 120Q452
87 427 56T364 6T276 -14Q204 -14 153 19T74 110T46 245Q46 333 74 396T153 494T272 529Z" />
<glyph unicode="f" horiz-adv-x="332" d="M276 782Q304 782 325 775T363 755Q378 743 386 727T394 693Q394 670 379 655T341 640Q319 640 303 654T286 694Q286 715 297 728T328 745Q325 754 313 760T279 767Q256 767 240 757T214 730Q202 709 199 668T196 540V514H303V494H196V103Q196
54 224 38T302 21V0Q279 1 237 2T148 4Q114 4 81 3T30 0V21Q71 21 88 36T106 93V494H26V514H106Q106 603 117 650T157 732Q177 755 208 768T276 782Z" />
<glyph unicode="g" horiz-adv-x="528" d="M213 -188Q160 -188 113 -177T38 -143T9 -83Q9 -48 37 -23T113 15L119 -1Q97 -8 84 -29T71 -76Q71 -122 113 -146T224 -171Q269 -171 312 -160T383 -121T411 -50Q411 -17 388 4T295 26H221Q189 26 159 31T110 52T91 101Q91
135 119 166T222 231L234 222Q200 204 175 186T150 142Q150 110 198 110H323Q385 110 432 83T480 -8Q480 -55 450 -96T361 -162T213 -188ZM218 213Q144 213 94 251T43 371Q43 454 93 491T218 529Q292 529 342 492T393 371Q393 289 343 251T218 213ZM218 231Q256
231 277 261T299 371Q299 451 278 481T218 511Q181 511 159 481T137 371Q137 291 159 261T218 231ZM362 446L344 453Q358 487 392 513T463 539Q489 539 505 525T521 481Q521 450 505 438T471 425Q456 425 443 435T428 469T442 528L455 525Q413 509 395 492T362
446Z" />
<glyph unicode="h" horiz-adv-x="588" d="M186 783V409Q212 477 258 503T356 529Q394 529 419 519T462 491Q481 471 489 441T497 360V93Q497 51 514 36T573 21V0Q556 1 521 2T453 4Q420 4 389 3T341 0V21Q377 21 392 36T407 93V382Q407 413 402 439T380 481T326
497Q265 497 226 447T186 316V93Q186 51 201 36T252 21V0Q236 1 205 2T140 4Q107 4 72 3T20 0V21Q61 21 78 36T96 93V663Q96 708 80 729T20 751V772Q52 769 82 769Q111 769 137 772T186 783Z" />
<glyph unicode="i" horiz-adv-x="293" d="M143 765Q169 765 188 746T207 701Q207 675 188 656T143 637Q117 637 98 656T79 701Q79 727 98 746T143 765ZM195 526V93Q195 51 212 36T271 21V0Q254 1 220 2T150 4Q116 4 81 3T29 0V21Q70 21 87 36T105 93V406Q105 451
89 472T29 494V515Q61 512 91 512Q120 512 146 515T195 526Z" />
<glyph unicode="j" horiz-adv-x="267" d="M-26 -188V-173Q36 -170 67 -120T98 19V406Q98 451 82 472T22 494V515Q54 512 84 512Q113 512 139 515T188 526V115Q188 40 172 -23T116 -127Q91 -154 55 -171T-26 -188ZM134 765Q160 765 179 746T198 701Q198 675 179
656T134 637Q108 637 89 656T70 701Q70 727 89 746T134 765Z" />
<glyph unicode="k" horiz-adv-x="550" d="M186 784V93Q186 51 201 36T252 21V0Q236 1 205 2T141 4Q107 4 72 3T20 0V21Q61 21 78 36T96 93V664Q96 709 80 730T20 752V773Q52 770 82 770Q111 770 137 773T186 784ZM504 515V495Q479 493 457 482T414 448L273 300L287
328L473 73Q490 50 505 37T543 21V0Q532 1 509 2T462 4Q431 4 399 3T351 0V21Q371 21 379 31T376 55L261 223Q242 250 227 258T182 267V287Q214 291 234 300T272 329L346 406Q378 439 378 458T358 486T304 495V515Q330 514 362 513T417 511Q434 511 450 511T480
513T504 515Z" />
<glyph unicode="l" horiz-adv-x="286" d="M188 784V93Q188 51 205 36T264 21V0Q247 1 213 2T143 4Q109 4 74 3T22 0V21Q63 21 80 36T98 93V664Q98 709 82 730T22 752V773Q54 770 84 770Q113 770 139 773T188 784Z" />
<glyph unicode="m" horiz-adv-x="888" d="M359 529Q394 529 420 519T463 491Q482 471 489 439T496 360V93Q496 51 513 36T572 21V0Q555 1 520 2T452 4Q419 4 388 3T340 0V21Q376 21 391 36T406 93V382Q406 413 402 439T382 481T330 497Q291 497 261 473T213 408T195
315V93Q195 51 210 36T261 21V0Q245 1 214 2T149 4Q116 4 81 3T29 0V21Q70 21 87 36T105 93V406Q105 451 89 472T29 494V515Q61 512 91 512Q120 512 146 515T195 526V408Q221 473 266 501T359 529ZM660 529Q695 529 721 519T764 491Q783 471 790 439T797 360V93Q797
51 814 36T873 21V0Q856 1 821 2T753 4Q720 4 689 3T641 0V21Q677 21 692 36T707 93V382Q707 413 703 439T683 481T631 497Q573 497 535 445T496 316L493 409Q520 478 566 503T660 529Z" />
<glyph unicode="n" horiz-adv-x="597" d="M365 529Q403 529 428 519T471 491Q490 471 498 441T506 360V93Q506 51 523 36T582 21V0Q565 1 530 2T462 4Q429 4 398 3T350 0V21Q386 21 401 36T416 93V382Q416 413 411 439T389 481T335 497Q272 497 234 445T195 315V93Q195
51 210 36T261 21V0Q245 1 214 2T149 4Q116 4 81 3T29 0V21Q70 21 87 36T105 93V406Q105 451 89 472T29 494V515Q61 512 91 512Q120 512 146 515T195 526V408Q221 476 267 502T365 529Z" />
<glyph unicode="o" horiz-adv-x="548" d="M274 529Q338 529 389 501T470 413T501 257Q501 161 471 102T389 14T274 -14Q211 -14 160 14T78 101T47 257Q47 353 77 413T159 501T274 529ZM274 509Q217 509 181 450T144 257Q144 123 180 65T274 6Q331 6 367 64T404
257Q404 391 368 450T274 509Z" />
<glyph unicode="p" horiz-adv-x="581" d="M188 526V-88Q188 -131 213 -145T284 -160V-181Q262 -180 223 -179T140 -177Q109 -177 79 -178T32 -181V-160Q68 -160 83 -147T98 -98V406Q98 451 82 472T22 494V515Q54 512 84 512Q113 512 139 515T188 526ZM348 529Q427
529 480 466T534 281Q534 209 511 141T437 30T305 -14Q258 -14 224 8T177 61L187 75Q201 47 227 28T294 9Q350 9 381 44T424 137T437 267Q437 347 424 398T385 474T321 499Q272 499 232 459T181 336L169 350Q180 435 229 482T348 529Z" />
<glyph unicode="q" horiz-adv-x="563" d="M261 529Q323 529 361 503T420 415L400 426Q381 467 347 486T269 506Q210 506 177 445T144 257Q144 177 160 123T207 43T282 16Q324 16 359 57T400 178L412 164Q405 79 361 33T253 -14Q196 -14 149 15T75 105T47 257Q47
348 75 408T152 499T261 529ZM473 531L490 524Q486 511 485 496T483 466V-98Q483 -134 498 -147T549 -160V-181Q533 -180 503 -179T441 -177Q398 -177 359 -178T297 -181V-160Q342 -160 367 -146T393 -88V447Q407 461 420 475T446 503T473 531Z" />
<glyph unicode="r" horiz-adv-x="445" d="M340 529Q367 529 387 518T419 490T431 450Q431 425 416 406T374 387Q353 387 337 400T321 439Q321 458 331 471T355 493Q348 503 334 503Q292 503 261 472T213 396T195 315V103Q195 54 223 38T301 21V0Q278 1 236 2T147
4Q113 4 80 3T29 0V21Q70 21 87 36T105 93V406Q105 451 89 472T29 494V515Q61 512 91 512Q120 512 146 515T195 526V401Q206 430 226 459T276 509T340 529Z" />
<glyph unicode="s" horiz-adv-x="447" d="M208 529Q248 529 276 516T317 492Q350 465 357 528H380Q378 500 377 462T376 358H353Q347 395 333 430T290 487T217 510Q182 510 159 491T135 433Q135 403 153 382T200 342T263 301Q320 264 360 226T400 126Q400 80 376
49T314 2T229 -14Q207 -14 188 -11T150 0Q140 5 130 12T109 27Q99 35 91 27T79 -7H56Q58 25 59 71T60 193H83Q90 137 103 95T144 30T222 6Q252 6 281 27T311 101Q311 145 279 173T198 232Q162 255 131 278T80 330T60 400Q60 445 80 473T135 515T208 529Z" />
<glyph unicode="t" horiz-adv-x="354" d="M190 681V514H338V494H190V107Q190 60 207 41T254 22Q284 22 306 46T344 129L364 124Q354 66 325 26T234 -14Q200 -14 178 -6T139 19Q117 42 109 74T100 159V494H4V514H100V667Q125 668 148 671T190 681Z" />
<glyph unicode="u" horiz-adv-x="581" d="M483 526V108Q483 63 499 42T559 20V-1Q528 2 497 2Q468 2 442 -1T393 -12V106Q368 41 323 14T229 -14Q194 -14 168 -4T125 24Q106 44 99 76T92 155V406Q92 451 76 472T16 494V515Q48 512 78 512Q107 512 133 515T182
526V133Q182 102 186 76T206 34T258 18Q317 18 355 70T393 199V406Q393 451 377 472T317 494V515Q349 512 379 512Q408 512 434 515T483 526Z" />
<glyph unicode="v" horiz-adv-x="489" d="M486 515V495Q467 493 451 478T421 425L257 -5Q253 -5 249 -5T240 -5L56 438Q40 477 25 485T-2 494V515Q18 514 39 513T86 511Q117 511 151 512T216 515V494Q191 494 172 491T147 471T156 416L281 107L275 102L389 401Q408
451 394 471T326 495V515Q352 514 369 513T410 512Q433 512 451 513T486 515Z" />
<glyph unicode="w" horiz-adv-x="770" d="M218 515V494Q193 494 174 491T149 470T158 410L262 112L255 113L402 519L422 511L239 -5Q235 -5 231 -5T222 -5L58 438Q42 478 27 486T0 494V515Q20 512 41 511T88 509Q119 509 153 511T218 515ZM767 515V495Q748 493
732 479T702 425L557 -5Q553 -5 549 -5T540 -5L379 404L402 519Q408 519 413 519T425 519L581 106L573 100L672 401Q689 451 675 471T607 495V515Q625 514 638 514T663 513T691 512Q714 512 732 513T767 515Z" />
<glyph unicode="x" horiz-adv-x="519" d="M212 515V494Q193 494 180 485T177 460L444 71Q461 46 474 36T506 21V0Q496 1 476 2T435 4Q404 4 369 3T317 0V21Q337 21 350 30T352 55L85 444Q65 473 53 482T23 494V515Q33 514 54 513T94 511Q126 511 161 512T212 515ZM239
261Q239 261 243 248T248 234L165 126Q139 92 138 69T156 35T211 20V0Q194 1 173 1T133 2T97 3Q53 3 21 0V20Q40 22 60 37T109 90L239 261ZM486 515V495Q467 493 445 476T398 425L283 266Q283 266 279 279T275 292L353 401Q386 448 383 469T326 495V515Q352 514
369 513T410 512Q455 512 486 515Z" />
<glyph unicode="y" horiz-adv-x="504" d="M494 515V495Q475 493 459 478T429 425L265 -5H248L64 438Q45 477 27 485T-4 494V515Q18 512 42 511T94 509Q125 509 159 511T224 515V494Q199 494 180 491T155 470T167 410L290 105L284 103L398 401Q417 451 402 471T334
495V515Q360 514 377 513T418 512Q441 512 459 513T494 515ZM265 -5L231 -92Q212 -141 188 -162Q172 -177 150 -182T110 -188Q91 -188 76 -181T51 -161T42 -128Q42 -104 56 -90T95 -75Q116 -75 131 -87T146 -122Q146 -139 138 -150T119 -167Q121 -168 122 -168T125
-168Q152 -168 173 -150T210 -90L246 3L265 -5Z" />
<glyph unicode="z" horiz-adv-x="476" d="M439 520L150 15H260Q300 15 329 31T377 82T399 176H422Q422 112 423 68T426 -4Q382 -2 335 -1T240 0Q190 0 138 -1T38 -5L327 500H217Q173 500 144 484T99 433T78 339H55Q55 404 54 447T51 519Q95 517 142 516T237 515Q287
515 339 516T439 520Z" />
<glyph unicode="{" horiz-adv-x="304" d="M278 782V763Q245 762 228 749T205 691T198 551Q198 461 178 410T126 335T55 299Q93 288 125 263T178 188T198 47Q198 -27 201 -70T213 -134T238 -162T278 -169V-188Q215 -188 178 -168T124 -96T108 47Q108 141 102 192T79
266T32 290H27V308H32Q63 310 79 331T101 405T108 551Q108 639 124 689T177 761T278 782Z" />
<glyph unicode="|" horiz-adv-x="222" d="M131 858V-195H91V858H131Z" />
<glyph unicode="}" horiz-adv-x="304" d="M26 782V763Q59 762 76 749T99 691T106 551Q106 461 126 410T178 335T249 299Q211 288 179 263T126 188T106 47Q106 -27 103 -70T91 -134T66 -162T26 -169V-188Q89 -188 126 -168T180 -96T196 47Q196 141 202 192T225
266T272 290H277V308H272Q241 310 225 331T203 405T196 551Q196 639 180 689T127 761T26 782Z" />
<glyph unicode="~" horiz-adv-x="649" d="M215 365Q252 365 283 354T344 327T404 300T469 288Q499 288 522 301T559 346L576 341Q570 292 529 264T435 235Q398 235 367 246T306 273T246 300T181 312Q151 312 128 299T91 254L74 259Q80 309 121 337T215 365Z" />
<glyph unicode="&#xa0;" horiz-adv-x="249" />
<glyph unicode="&#xa1;" horiz-adv-x="249" d="M133 318Q133 251 138 185T151 60T164 -49T170 -132Q170 -162 157 -175T124 -188Q105 -188 92 -175T78 -132Q78 -99 83 -50T96 59T109 185T115 318H133ZM125 529Q151 529 170 510T189 465Q189 439 170 420T125 401Q99
401 80 420T61 465Q61 491 80 510T125 529Z" />
<glyph unicode="&#xa2;" horiz-adv-x="474" d="M243 -181V9H265V-181H243ZM243 520V708H265V520H243ZM267 529Q299 529 329 521T383 497Q406 482 418 463T430 420Q430 393 415 379T377 364Q355 364 339 377T322 414Q322 437 334 451T364 469Q354 487 329 499T274
511Q249 511 224 499T178 460T144 385T131 266Q131 178 151 126T203 52T275 29Q314 29 354 52T420 132L439 125Q429 93 406 61T346 7T255 -14Q193 -14 143 18T64 109T34 251Q34 333 63 395T146 493T267 529Z" />
<glyph unicode="&#xa3;" horiz-adv-x="602" d="M358 736Q390 736 413 729T452 709Q467 697 474 683T482 654Q482 632 468 619T435 605Q418 605 404 617T389 650Q389 684 422 697Q420 707 401 714T360 721Q312 721 285 700T247 642T232 559T229 465V317Q229 269
222 231T200 159T164 88Q184 97 204 102T250 108Q285 108 317 97T383 74T455 63Q491 63 507 80T523 120Q523 155 500 177T438 206L442 222Q490 215 530 184T570 97Q570 55 543 21T461 -14Q422 -14 389 3T324 40T259 72Q249 76 237 78T210 80Q182 80 155 70Q132
30 105 8T51 -14Q44 -14 40 -13T35 -4Q35 6 48 21T82 50T125 73Q130 96 132 120T135 178T136 258V439Q136 521 156 588T224 696T358 736ZM374 317V297H59V317H374ZM374 417V397H59V417H374Z" />
<glyph unicode="&#xa4;" horiz-adv-x="535" d="M432 492L460 464L415 419Q435 394 446 364T457 300Q457 266 446 236T415 181L459 138L431 109L387 153Q362 134 332 123T268 111Q199 111 149 152L106 109L77 138L120 181Q101 205 90 235T78 300Q78 367 121 420L77
464L105 492L149 448Q173 468 203 479T268 490Q302 490 332 479T387 447L432 492ZM268 453Q227 453 193 432T139 377T119 300Q119 259 139 224T194 169T268 148Q309 148 342 168T396 224T416 300Q416 341 396 376T343 432T268 453Z" />
<glyph unicode="&#xa5;" horiz-adv-x="647" d="M521 296V276H148V296H521ZM521 196V176H148V196H521ZM618 708V688Q599 684 580 664T538 599L336 199H319L85 631Q65 668 52 677T27 687V708Q47 707 68 706T115 705Q148 705 185 705T255 708V687Q230 687 211 681T186
659T195 614L364 290L356 284L489 549Q517 604 517 634T493 675T428 688V708Q457 707 487 706T543 705Q569 705 586 706T618 708ZM381 304V106Q381 70 387 52T410 28T462 20V0Q439 2 405 2T335 3Q296 3 262 3T207 0V20Q241 22 258 28T282 52T288 106V311L342 249L381
304Z" />
<glyph unicode="&#xa6;" horiz-adv-x="224" d="M132 326V-195H92V326H132ZM132 858V384H92V858H132Z" />
<glyph unicode="&#xa7;" horiz-adv-x="508" d="M261 782Q291 782 313 777T350 765Q386 750 406 726T427 675Q427 653 414 637T374 621Q352 621 336 635T319 674Q319 691 329 706T362 727Q352 749 320 756T265 763Q224 763 200 748T165 710T155 664Q155 625 180
593T244 532T321 477Q369 444 402 416T451 356T468 282Q468 233 440 188T339 105L330 115Q374 138 394 168T414 232Q414 266 394 294T341 348T270 400Q218 436 176 468T110 537T85 625Q85 672 106 707T168 762T261 782ZM168 491L179 479Q135 458 115 427T95 362Q95
329 115 301T168 246T239 194Q291 159 333 127T399 57T424 -31Q424 -77 403 -112T342 -168T248 -188Q218 -188 196 -183T159 -171Q123 -156 103 -132T82 -81Q82 -59 96 -43T135 -27Q158 -27 174 -41T190 -80Q190 -97 180 -112T147 -133Q153 -147 170 -155T209 -166T245
-169Q286 -169 309 -154T343 -115T354 -70Q354 -30 329 2T266 62T188 117Q140 150 108 178T58 239T41 312Q41 362 68 408T168 491Z" />
<glyph unicode="&#xa8;" horiz-adv-x="428" d="M320 743Q343 743 360 726T378 685Q378 661 361 644T320 627Q296 627 279 644T262 685Q262 708 279 725T320 743ZM108 743Q131 743 148 726T166 685Q166 661 149 644T108 627Q84 627 67 644T50 685Q50 708 67 725T108 743Z" />
<glyph unicode="&#xa9;" horiz-adv-x="894" d="M447 782Q530 782 602 751T728 666T814 539T845 384Q845 302 814 230T729 103T602 17T447 -14Q365 -14 293 17T166 102T80 229T49 384Q49 467 80 539T165 665T292 751T447 782ZM464 656Q498 656 529 647T584 621Q604
608 615 589T626 547Q626 520 611 506T573 491Q551 491 535 505T518 545Q518 566 529 579T560 596Q550 614 525 626T470 638Q448 638 426 629T384 599Q368 581 355 553T335 485T327 390Q327 304 347 253T399 179T470 156Q497 156 523 166T574 198T616 259L635 252Q625
220 602 188T542 134T452 113Q390 113 340 145T260 236T230 378Q230 460 259 522T342 620T464 656ZM447 750Q373 750 308 722T194 643T117 526T89 384Q89 308 117 242T194 126T308 47T447 18Q521 18 586 46T700 125T777 242T805 384Q805 460 777 526T700 642T586
721T447 750Z" />
<glyph unicode="&#xaa;" horiz-adv-x="463" d="M225 722Q290 722 318 692T347 595V432Q347 411 353 403T372 395Q396 395 413 412L424 397Q408 381 386 371T334 360Q297 360 283 372T267 407Q242 382 212 371T150 360Q116 360 87 379T57 438Q57 481 94 503T187
547Q215 558 241 571T267 603V621Q267 666 249 684T199 703Q183 703 163 698T125 682Q139 678 149 666T159 635Q159 616 146 604T115 591Q93 591 80 603T67 636Q67 658 81 673T115 699Q138 710 164 716T225 722ZM267 572Q263 564 252 557T211 535Q174 519 157 501T139
456Q139 429 154 412T194 395Q232 395 267 427V572Z" />
<glyph unicode="&#xab;" horiz-adv-x="502" d="M262 529L279 522Q255 457 228 410T172 327T107 261Q142 231 171 194T228 108T279 -7L262 -14Q221 78 167 145T32 257V258Q112 302 166 369T262 529ZM437 529L454 522Q430 457 403 410T347 327T282 261Q317 231 346
194T403 108T454 -7L437 -14Q396 78 342 145T207 257V258Q287 302 341 369T437 529Z" />
<glyph unicode="&#xac;" horiz-adv-x="656" d="M583 370V165H547V340H82V370H583Z" />
<glyph unicode="&#xad;" horiz-adv-x="499" />
<glyph unicode="&#xae;" horiz-adv-x="678" d="M339 782Q416 782 479 745T580 644T618 503Q618 426 581 363T480 262T339 224Q262 224 199 261T98 362T60 503Q60 580 97 643T198 744T339 782ZM270 520Q304 520 318 519T340 517T359 513Q406 509 423 495T446 454L458
397Q461 384 463 374T476 364Q484 364 488 372L498 365Q492 353 482 349T454 344Q428 344 416 354T399 385L382 459Q378 479 370 489T340 502T272 505L270 520ZM339 750Q273 750 220 717T134 627T102 503Q102 436 134 380T219 290T339 256Q405 256 459 289T544
379T576 503Q576 571 545 627T459 716T339 750ZM348 676Q405 676 434 656T464 597Q464 577 453 558T412 525T325 508L265 505Q265 505 265 513T265 521H318Q371 521 386 540T402 587Q402 625 387 643T332 661Q308 661 301 655T294 628V404Q294 381 298 375T317
367V352Q307 352 294 352T266 353Q250 353 237 353T214 352V367Q228 369 232 375T237 404V623Q237 647 233 653T214 661V676Q223 675 236 675T262 675Q290 675 314 675T348 676Z" />
<glyph unicode="&#xaf;" horiz-adv-x="412" d="M362 712V687H50V712H362Z" />
<glyph unicode="&#xb0;" horiz-adv-x="333" d="M166 820Q215 820 251 788T288 700Q288 644 252 612T166 579Q118 579 82 611T45 700Q45 756 81 788T166 820ZM166 803Q132 803 101 777T70 699Q70 647 101 622T166 596Q200 596 231 621T263 699Q263 750 232 776T166 803Z" />
<glyph unicode="&#xb1;" horiz-adv-x="597" d="M554 30V0H53V30H554ZM312 606V370H544V340H312V105H276V340H43V370H276V606H312Z" />
<glyph unicode="&#xb2;" horiz-adv-x="338" d="M174 755Q218 755 246 737T274 680Q274 649 257 624T213 578T160 536T112 494H244Q268 494 276 503T291 528L308 525Q301 499 298 477T293 435Q284 437 275 437T255 438H35V458Q57 477 87 498T145 546T192 602T211
667Q211 696 194 708T146 721Q85 721 51 667L36 675Q53 706 87 730T174 755Z" />
<glyph unicode="&#xb3;" horiz-adv-x="324" d="M168 756Q213 756 241 737T269 683Q269 649 243 625T176 589Q222 588 257 566T292 499Q292 464 269 436T208 389T123 359T32 348V365Q84 367 129 385T202 433T231 499Q231 534 211 555T158 578Q147 573 139 569T122
564Q106 564 106 576Q106 587 119 589T150 590Q184 604 195 626T206 664Q206 690 188 706T138 722Q109 722 85 709T43 668L28 676Q45 707 79 731T168 756Z" />
<glyph unicode="&#xb4;" horiz-adv-x="283" d="M219 813Q231 803 232 787T219 751Q204 732 182 713T131 668T61 599L50 608Q81 657 99 692T131 753T159 798Q174 818 190 820T219 813Z" />
<glyph unicode="&#xb6;" horiz-adv-x="645" d="M393 709Q452 709 503 707T604 708V689Q555 687 541 671T527 621V-75Q527 -111 533 -129T556 -153T608 -161V-181Q585 -179 551 -179T481 -178Q436 -178 397 -178T333 -181V-161Q396 -159 415 -139T434 -65V-13Q287
-13 200 36T74 169T35 360Q35 462 77 541T200 664T393 709ZM435 656Q432 656 425 616T412 511T404 366Q327 366 264 363T162 357T124 351Q124 349 162 346T263 340T404 337Q405 256 411 191T425 87T435 48Q435 48 435 80T435 167T435 285T435 415T435 534T435 621T435
656Z" />
<glyph unicode="&#xb7;" horiz-adv-x="264" d="M132 332Q158 332 177 313T196 268Q196 242 177 223T132 204Q106 204 87 223T68 268Q68 294 87 313T132 332Z" />
<glyph unicode="&#xb8;" horiz-adv-x="296" d="M152 6L126 -72Q139 -69 154 -67T185 -65Q213 -65 229 -77T246 -112Q246 -140 228 -156T183 -180T133 -188Q105 -188 85 -185T50 -177L54 -159Q59 -160 69 -161T92 -162Q121 -162 151 -153T182 -117Q182 -89 140
-89Q132 -89 117 -90T91 -96L125 6H152Z" />
<glyph unicode="&#xb9;" horiz-adv-x="263" d="M178 753V507Q178 478 193 468T245 458V437Q231 438 204 438T148 439Q116 439 87 439T41 437V458Q76 458 95 468T115 507V636Q115 680 98 690T34 701V722Q84 723 117 730T178 753Z" />
<glyph unicode="&#xba;" horiz-adv-x="454" d="M227 722Q271 722 311 702T378 641T404 541Q404 482 378 442T312 381T227 360Q183 360 143 380T76 441T50 541Q50 601 76 641T142 701T227 722ZM227 704Q189 704 161 666T133 541Q133 454 161 416T227 378Q265 378
293 416T321 541Q321 628 293 666T227 704Z" />
<glyph unicode="&#xbb;" horiz-adv-x="501" d="M240 528Q281 436 336 369T470 257V256Q391 212 336 145T240 -15L223 -8Q248 58 274 105T331 187T395 253Q361 283 331 320T275 406T223 521L240 528ZM65 528Q106 436 161 369T295 257V256Q216 212 161 145T65 -15L48
-8Q73 58 99 105T156 187T220 253Q186 283 156 320T100 406T48 521L65 528Z" />
<glyph unicode="&#xbc;" horiz-adv-x="693" d="M649 824L668 811L83 -55L64 -42L649 824ZM194 753V507Q194 478 209 468T261 458V437Q247 438 220 438T164 439Q132 439 103 439T57 437V458Q92 458 111 468T131 507V636Q131 680 114 690T50 701V722Q100 723 133
730T194 753ZM528 303L536 288L328 47L324 59H557Q581 59 589 68T604 93L621 90Q617 74 614 62T610 38T607 15Q598 17 589 17T569 18H299V39L528 303ZM549 303V-99H493V251L528 303H549Z" />
<glyph unicode="&#xbd;" horiz-adv-x="700" d="M633 824L652 811L67 -55L48 -42L633 824ZM202 753V507Q202 478 217 468T269 458V437Q255 438 228 438T172 439Q140 439 111 439T65 437V458Q100 458 119 468T139 507V636Q139 680 122 690T58 701V722Q108 723 141
730T202 753ZM527 318Q571 318 599 300T627 243Q627 212 610 187T566 141T513 99T465 57H597Q621 57 629 66T644 91L661 88Q654 62 651 40T646 -2Q637 0 628 0T608 1H388V21Q410 40 440 61T498 109T545 165T564 230Q564 259 547 271T499 284Q438 284 404 230L389
238Q406 269 440 293T527 318Z" />
<glyph unicode="&#xbe;" horiz-adv-x="744" d="M696 824L715 811L130 -55L111 -42L696 824ZM191 756Q236 756 264 737T292 683Q292 649 266 625T199 589Q245 588 280 566T315 499Q315 464 292 436T231 389T146 359T55 348V365Q107 367 152 385T225 433T254 499Q254
534 234 555T181 578Q170 573 162 569T145 564Q129 564 129 576Q129 587 142 589T173 590Q207 604 218 626T229 664Q229 690 211 706T161 722Q132 722 108 709T66 668L51 676Q68 707 102 731T191 756ZM575 303L583 288L375 47L371 59H604Q628 59 636 68T651 93L668
90Q664 74 661 62T657 38T654 15Q645 17 636 17T616 18H346V39L575 303ZM596 303V-99H540V251L575 303H596Z" />
<glyph unicode="&#xbf;" horiz-adv-x="453" d="M276 320V185Q210 162 177 134T132 72T120 1Q120 -88 159 -128T260 -168Q284 -168 312 -163T358 -142Q339 -138 328 -126T316 -91Q316 -65 332 -51T371 -37Q394 -37 409 -52T424 -90Q424 -111 412 -128T377 -159Q357
-171 324 -179T241 -188Q147 -188 89 -143T31 -18Q31 63 93 117T256 194V320H276ZM265 530Q291 530 310 511T329 466Q329 440 310 421T265 402Q239 402 220 421T201 466Q201 492 220 511T265 530Z" />
<glyph unicode="&#xc0;" horiz-adv-x="630" d="M323 713L567 84Q582 46 601 34T636 20V0Q616 2 587 2T529 3Q490 3 456 3T401 0V20Q452 22 466 37T460 104L274 601L290 614L116 162Q95 108 96 78T119 34T183 20V0Q155 2 125 2T68 3Q43 3 26 3T-7 0V20Q13 25 34
43T72 107L307 713Q311 713 315 713T323 713ZM445 288V268H147L157 288H445ZM213 926Q234 913 255 893T305 847T381 785L374 772Q323 798 286 812T222 837T173 861Q152 875 148 890T152 919Q160 932 176 935T213 926Z" />
<glyph unicode="&#xc1;" horiz-adv-x="630" d="M323 713L567 84Q582 46 601 34T636 20V0Q616 2 587 2T529 3Q490 3 456 3T401 0V20Q452 22 466 37T460 104L274 601L290 614L116 162Q95 108 96 78T119 34T183 20V0Q155 2 125 2T68 3Q43 3 26 3T-7 0V20Q13 25 34
43T72 107L307 713Q311 713 315 713T323 713ZM445 288V268H147L157 288H445ZM421 926Q441 939 457 936T482 919Q490 906 486 891T461 861Q440 848 413 838T349 813T260 772L253 785Q299 820 328 846T379 893T421 926Z" />
<glyph unicode="&#xc2;" horiz-adv-x="630" d="M323 713L567 84Q582 46 601 34T636 20V0Q616 2 587 2T529 3Q490 3 456 3T401 0V20Q452 22 466 37T460 104L274 601L290 614L116 162Q95 108 96 78T119 34T183 20V0Q155 2 125 2T68 3Q43 3 26 3T-7 0V20Q13 25 34
43T72 107L307 713Q311 713 315 713T323 713ZM445 288V268H147L157 288H445ZM323 916Q346 878 395 843T510 784L505 770Q445 783 387 802T294 840Q266 821 219 802T123 770L118 784Q183 807 232 842T305 916H323Z" />
<glyph unicode="&#xc3;" horiz-adv-x="630" d="M323 713L567 84Q582 46 601 34T636 20V0Q616 2 587 2T529 3Q490 3 456 3T401 0V20Q452 22 466 37T460 104L274 601L290 614L116 162Q95 108 96 78T119 34T183 20V0Q155 2 125 2T68 3Q43 3 26 3T-7 0V20Q13 25 34
43T72 107L307 713Q311 713 315 713T323 713ZM445 288V268H147L157 288H445ZM233 902Q261 902 285 891T332 864T378 837T427 825Q447 825 463 837T489 881L504 878Q500 829 468 801T393 772Q365 772 341 783T294 810T248 837T199 849Q178 849 162 837T137 793L122
796Q127 846 159 874T233 902Z" />
<glyph unicode="&#xc4;" horiz-adv-x="630" d="M323 713L567 84Q582 46 601 34T636 20V0Q616 2 587 2T529 3Q490 3 456 3T401 0V20Q452 22 466 37T460 104L274 601L290 614L116 162Q95 108 96 78T119 34T183 20V0Q155 2 125 2T68 3Q43 3 26 3T-7 0V20Q13 25 34
43T72 107L307 713Q311 713 315 713T323 713ZM445 288V268H147L157 288H445ZM420 888Q443 888 460 871T478 830Q478 806 461 789T420 772Q396 772 379 789T362 830Q362 853 379 870T420 888ZM208 888Q231 888 248 871T266 830Q266 806 249 789T208 772Q184 772
167 789T150 830Q150 853 167 870T208 888Z" />
<glyph unicode="&#xc5;" horiz-adv-x="630" d="M323 713L567 84Q582 46 601 34T636 20V0Q616 2 587 2T529 3Q490 3 456 3T401 0V20Q452 22 466 37T460 104L274 601L290 614L116 162Q95 108 96 78T119 34T183 20V0Q155 2 125 2T68 3Q43 3 26 3T-7 0V20Q13 25 34
43T72 107L307 713Q311 713 315 713T323 713ZM445 288V268H147L157 288H445ZM314 925Q353 925 382 901T411 834Q411 791 382 767T314 742Q276 742 247 766T218 834Q218 876 247 900T314 925ZM314 904Q290 904 268 886T246 833Q246 798 268 781T314 763Q339 763
361 780T383 833Q383 868 361 886T314 904Z" />
<glyph unicode="&#xc6;" horiz-adv-x="854" d="M500 772L97 104Q69 58 83 40T148 20V0Q133 2 109 2T57 3Q40 3 22 3T-10 0V20Q6 21 22 35T59 84L476 772H500ZM786 708Q782 673 781 640T779 590Q779 572 780 556T782 528H759Q754 587 746 621T717 670T655 685H592Q558
685 541 680T517 657T511 602V106Q511 70 517 52T540 29T592 23H665Q714 23 736 40T766 95T779 200H802Q799 173 799 128Q799 109 800 74T806 0Q760 2 702 2T597 3Q572 3 532 3T445 3T357 0V20Q383 22 396 28T413 52T418 106V602Q418 639 412 656T389 680T337 688V708Q382
707 432 706T526 705T597 705Q638 705 691 705T786 708ZM451 366V346H231L241 366H451ZM651 366Q651 366 651 356T651 346H481Q481 346 481 356T481 366H651ZM680 478Q676 429 676 404T677 356Q677 334 678 309T683 234H660Q657 261 653 287T634 329T584 346V366Q619
366 633 385T650 431T657 478H680Z" />
<glyph unicode="&#xc7;" horiz-adv-x="688" d="M371 722Q437 722 479 703T555 657Q575 642 585 653T600 708H623Q621 671 620 618T619 478H596Q589 521 583 546T569 590T546 626Q515 667 468 685T369 704Q320 704 281 680T213 609T169 498T153 352Q153 268 170
204T217 95T289 29T379 6Q424 6 473 24T550 82Q572 111 580 145T596 240H619Q619 149 620 94T623 0H600Q596 43 587 54T555 51Q518 25 477 6T370 -14Q275 -14 204 29T93 153T53 348Q53 460 94 544T206 675T371 722ZM385 5L359 -72Q372 -69 387 -67T418 -65Q446
-65 462 -77T479 -112Q479 -140 461 -156T416 -180T366 -188Q338 -188 318 -185T283 -177L287 -159Q292 -160 302 -161T325 -162Q354 -162 384 -153T415 -117Q415 -103 404 -96T373 -89Q365 -89 350 -90T324 -96L358 5H385Z" />
<glyph unicode="&#xc8;" horiz-adv-x="609" d="M541 708Q537 673 536 640T534 590Q534 572 535 556T537 528H514Q508 587 497 621T460 670T380 685H297Q263 685 246 680T222 657T216 602V106Q216 70 222 52T245 29T297 23H370Q433 23 465 40T512 95T534 200H557Q554
173 554 128Q554 109 555 74T561 0Q510 2 446 2T332 3Q302 3 253 3T147 3T42 0V20Q76 22 93 28T117 52T123 106V602Q123 639 117 656T94 680T42 688V708Q91 707 147 706T252 705T332 705Q378 705 436 705T541 708ZM369 366Q369 366 369 356T369 346H186Q186 346
186 356T186 366H369ZM398 498Q394 441 394 411T395 356Q395 331 396 301T401 214H378Q374 246 369 276T345 326T282 346V366Q326 366 343 389T366 443T375 498H398ZM205 926Q226 913 247 893T297 847T373 785L366 772Q315 798 278 812T214 837T165 861Q144 875
140 890T144 919Q152 932 168 935T205 926Z" />
<glyph unicode="&#xc9;" horiz-adv-x="609" d="M541 708Q537 673 536 640T534 590Q534 572 535 556T537 528H514Q508 587 497 621T460 670T380 685H297Q263 685 246 680T222 657T216 602V106Q216 70 222 52T245 29T297 23H370Q433 23 465 40T512 95T534 200H557Q554
173 554 128Q554 109 555 74T561 0Q510 2 446 2T332 3Q302 3 253 3T147 3T42 0V20Q76 22 93 28T117 52T123 106V602Q123 639 117 656T94 680T42 688V708Q91 707 147 706T252 705T332 705Q378 705 436 705T541 708ZM369 366Q369 366 369 356T369 346H186Q186 346
186 356T186 366H369ZM398 498Q394 441 394 411T395 356Q395 331 396 301T401 214H378Q374 246 369 276T345 326T282 346V366Q326 366 343 389T366 443T375 498H398ZM413 926Q433 939 449 936T474 919Q482 906 478 891T453 861Q432 848 405 838T341 813T252 772L245
785Q291 820 320 846T371 893T413 926Z" />
<glyph unicode="&#xca;" horiz-adv-x="609" d="M541 708Q537 673 536 640T534 590Q534 572 535 556T537 528H514Q508 587 497 621T460 670T380 685H297Q263 685 246 680T222 657T216 602V106Q216 70 222 52T245 29T297 23H370Q433 23 465 40T512 95T534 200H557Q554
173 554 128Q554 109 555 74T561 0Q510 2 446 2T332 3Q302 3 253 3T147 3T42 0V20Q76 22 93 28T117 52T123 106V602Q123 639 117 656T94 680T42 688V708Q91 707 147 706T252 705T332 705Q378 705 436 705T541 708ZM369 366Q369 366 369 356T369 346H186Q186 346
186 356T186 366H369ZM398 498Q394 441 394 411T395 356Q395 331 396 301T401 214H378Q374 246 369 276T345 326T282 346V366Q326 366 343 389T366 443T375 498H398ZM315 916Q338 878 387 843T502 784L497 770Q437 783 379 802T286 840Q258 821 211 802T115 770L110
784Q175 807 224 842T297 916H315Z" />
<glyph unicode="&#xcb;" horiz-adv-x="609" d="M541 708Q537 673 536 640T534 590Q534 572 535 556T537 528H514Q508 587 497 621T460 670T380 685H297Q263 685 246 680T222 657T216 602V106Q216 70 222 52T245 29T297 23H370Q433 23 465 40T512 95T534 200H557Q554
173 554 128Q554 109 555 74T561 0Q510 2 446 2T332 3Q302 3 253 3T147 3T42 0V20Q76 22 93 28T117 52T123 106V602Q123 639 117 656T94 680T42 688V708Q91 707 147 706T252 705T332 705Q378 705 436 705T541 708ZM369 366Q369 366 369 356T369 346H186Q186 346
186 356T186 366H369ZM398 498Q394 441 394 411T395 356Q395 331 396 301T401 214H378Q374 246 369 276T345 326T282 346V366Q326 366 343 389T366 443T375 498H398ZM412 888Q435 888 452 871T470 830Q470 806 453 789T412 772Q388 772 371 789T354 830Q354 853
371 870T412 888ZM200 888Q223 888 240 871T258 830Q258 806 241 789T200 772Q176 772 159 789T142 830Q142 853 159 870T200 888Z" />
<glyph unicode="&#xcc;" horiz-adv-x="339" d="M297 708V688Q263 687 246 681T222 657T216 602V106Q216 70 222 52T245 28T297 20V0Q274 2 240 2T170 3Q131 3 97 3T42 0V20Q76 22 93 28T117 52T123 106V602Q123 639 117 656T94 680T42 688V708Q63 707 97 706T170
705Q205 705 239 706T297 708ZM325 926Q346 913 367 893T417 847T493 785L486 772Q435 798 398 812T334 837T285 861Q264 875 260 890T264 919Q272 932 288 935T325 926Z" />
<glyph unicode="&#xcd;" horiz-adv-x="339" d="M297 708V688Q263 687 246 681T222 657T216 602V106Q216 70 222 52T245 28T297 20V0Q274 2 240 2T170 3Q131 3 97 3T42 0V20Q76 22 93 28T117 52T123 106V602Q123 639 117 656T94 680T42 688V708Q63 707 97 706T170
705Q205 705 239 706T297 708ZM277 926Q297 939 313 936T338 919Q346 906 342 891T317 861Q296 848 269 838T205 813T116 772L109 785Q155 820 184 846T235 893T277 926Z" />
<glyph unicode="&#xce;" horiz-adv-x="339" d="M297 708V688Q263 687 246 681T222 657T216 602V106Q216 70 222 52T245 28T297 20V0Q274 2 240 2T170 3Q131 3 97 3T42 0V20Q76 22 93 28T117 52T123 106V602Q123 639 117 656T94 680T42 688V708Q63 707 97 706T170
705Q205 705 239 706T297 708ZM435 916Q458 878 507 843T622 784L617 770Q557 783 499 802T406 840Q378 821 331 802T235 770L230 784Q295 807 344 842T417 916H435Z" />
<glyph unicode="&#xcf;" horiz-adv-x="339" d="M297 708V688Q263 687 246 681T222 657T216 602V106Q216 70 222 52T245 28T297 20V0Q274 2 240 2T170 3Q131 3 97 3T42 0V20Q76 22 93 28T117 52T123 106V602Q123 639 117 656T94 680T42 688V708Q63 707 97 706T170
705Q205 705 239 706T297 708ZM532 888Q555 888 572 871T590 830Q590 806 573 789T532 772Q508 772 491 789T474 830Q474 853 491 870T532 888ZM320 888Q343 888 360 871T378 830Q378 806 361 789T320 772Q296 772 279 789T262 830Q262 853 279 870T320 888Z" />
<glyph unicode="&#xd0;" horiz-adv-x="723" d="M315 708Q494 708 581 619T668 362Q668 253 626 172T502 45T306 0Q284 0 241 1T166 3Q131 3 97 3T42 0V20Q76 22 93 28T117 52T123 106V602Q123 639 117 656T94 680T42 688V708Q63 707 97 706T164 705Q199 706 243
707T315 708ZM290 690Q244 690 230 673T216 604V104Q216 52 230 35T291 18Q400 18 460 57T544 173T568 358Q568 526 507 608T290 690ZM363 366V346H9V366H363Z" />
<glyph unicode="&#xd1;" horiz-adv-x="706" d="M670 708V688Q636 687 619 678T595 649T589 592V-5Q583 -5 578 -5T566 -5L146 644V116Q146 80 152 60T178 31T237 20V0Q219 2 190 2T135 3Q110 3 85 3T42 0V20Q76 22 93 30T117 59T123 116V602Q123 639 117 656T94
680T42 688V708Q59 707 84 706T135 705Q157 705 177 706T213 708L566 164V592Q566 629 560 649T534 678T475 688V708Q493 707 522 706T577 705Q603 705 628 706T670 708ZM293 902Q321 902 345 891T392 864T438 837T487 825Q507 825 523 837T549 881L564 878Q560
829 528 801T453 772Q425 772 401 783T354 810T308 837T259 849Q238 849 222 837T197 793L182 796Q187 846 219 874T293 902Z" />
<glyph unicode="&#xd2;" horiz-adv-x="741" d="M371 722Q466 722 537 679T648 556T688 360Q688 248 648 164T535 33T370 -14Q275 -14 204 29T93 153T53 348Q53 460 94 544T206 675T371 722ZM367 704Q302 704 254 659T180 535T153 352Q153 246 182 168T262 47T374
4Q439 4 487 49T561 173T588 356Q588 463 559 541T479 661T367 704ZM268 926Q289 913 310 893T360 847T436 785L429 772Q378 798 341 812T277 837T228 861Q207 875 203 890T207 919Q215 932 231 935T268 926Z" />
<glyph unicode="&#xd3;" horiz-adv-x="741" d="M371 722Q466 722 537 679T648 556T688 360Q688 248 648 164T535 33T370 -14Q275 -14 204 29T93 153T53 348Q53 460 94 544T206 675T371 722ZM367 704Q302 704 254 659T180 535T153 352Q153 246 182 168T262 47T374
4Q439 4 487 49T561 173T588 356Q588 463 559 541T479 661T367 704ZM476 926Q496 939 512 936T537 919Q545 906 541 891T516 861Q495 848 468 838T404 813T315 772L308 785Q354 820 383 846T434 893T476 926Z" />
<glyph unicode="&#xd4;" horiz-adv-x="741" d="M371 722Q466 722 537 679T648 556T688 360Q688 248 648 164T535 33T370 -14Q275 -14 204 29T93 153T53 348Q53 460 94 544T206 675T371 722ZM367 704Q302 704 254 659T180 535T153 352Q153 246 182 168T262 47T374
4Q439 4 487 49T561 173T588 356Q588 463 559 541T479 661T367 704ZM378 916Q401 878 450 843T565 784L560 770Q500 783 442 802T349 840Q321 821 274 802T178 770L173 784Q238 807 287 842T360 916H378Z" />
<glyph unicode="&#xd5;" horiz-adv-x="741" d="M371 722Q466 722 537 679T648 556T688 360Q688 248 648 164T535 33T370 -14Q275 -14 204 29T93 153T53 348Q53 460 94 544T206 675T371 722ZM367 704Q302 704 254 659T180 535T153 352Q153 246 182 168T262 47T374
4Q439 4 487 49T561 173T588 356Q588 463 559 541T479 661T367 704ZM288 902Q316 902 340 891T387 864T433 837T482 825Q502 825 518 837T544 881L559 878Q555 829 523 801T448 772Q420 772 396 783T349 810T303 837T254 849Q233 849 217 837T192 793L177 796Q182
846 214 874T288 902Z" />
<glyph unicode="&#xd6;" horiz-adv-x="741" d="M371 722Q466 722 537 679T648 556T688 360Q688 248 648 164T535 33T370 -14Q275 -14 204 29T93 153T53 348Q53 460 94 544T206 675T371 722ZM367 704Q302 704 254 659T180 535T153 352Q153 246 182 168T262 47T374
4Q439 4 487 49T561 173T588 356Q588 463 559 541T479 661T367 704ZM475 888Q498 888 515 871T533 830Q533 806 516 789T475 772Q451 772 434 789T417 830Q417 853 434 870T475 888ZM263 888Q286 888 303 871T321 830Q321 806 304 789T263 772Q239 772 222 789T205
830Q205 853 222 870T263 888Z" />
<glyph unicode="&#xd7;" horiz-adv-x="510" d="M81 552L256 377L429 550L451 528L278 356L451 183L429 161L256 334L82 160L60 182L234 355L59 530L81 552Z" />
<glyph unicode="&#xd8;" horiz-adv-x="741" d="M371 722Q466 722 537 679T648 556T688 360Q688 248 648 164T535 33T370 -14Q275 -14 204 29T93 153T53 348Q53 460 94 544T206 675T371 722ZM367 704Q302 704 254 659T180 535T153 352Q153 246 182 168T262 47T374
4Q439 4 487 49T561 173T588 356Q588 463 559 541T479 661T367 704ZM539 632L554 612L204 77L186 95L539 632ZM178 95L196 77L94 -73L73 -59L178 95ZM643 773L662 760L561 612L546 632L643 773Z" />
<glyph unicode="&#xd9;" horiz-adv-x="682" d="M655 708V688Q621 687 604 678T580 649T574 592V291Q574 221 565 169T533 79Q508 37 460 12T350 -14Q302 -14 259 -3T182 40Q153 68 137 99T114 175T108 288V602Q108 639 102 656T79 680T27 688V708Q48 707 82 706T155
705Q190 705 224 706T282 708V688Q248 687 231 681T207 657T201 602V271Q201 203 211 146T254 55T359 21Q435 21 476 54T534 147T551 280V592Q551 629 543 649T514 678T460 688V708Q478 707 507 706T562 705Q588 705 613 706T655 708ZM251 926Q272 913 293 893T343
847T419 785L412 772Q361 798 324 812T260 837T211 861Q190 875 186 890T190 919Q198 932 214 935T251 926Z" />
<glyph unicode="&#xda;" horiz-adv-x="682" d="M655 708V688Q621 687 604 678T580 649T574 592V291Q574 221 565 169T533 79Q508 37 460 12T350 -14Q302 -14 259 -3T182 40Q153 68 137 99T114 175T108 288V602Q108 639 102 656T79 680T27 688V708Q48 707 82 706T155
705Q190 705 224 706T282 708V688Q248 687 231 681T207 657T201 602V271Q201 203 211 146T254 55T359 21Q435 21 476 54T534 147T551 280V592Q551 629 543 649T514 678T460 688V708Q478 707 507 706T562 705Q588 705 613 706T655 708ZM459 926Q479 939 495 936T520
919Q528 906 524 891T499 861Q478 848 451 838T387 813T298 772L291 785Q337 820 366 846T417 893T459 926Z" />
<glyph unicode="&#xdb;" horiz-adv-x="682" d="M655 708V688Q621 687 604 678T580 649T574 592V291Q574 221 565 169T533 79Q508 37 460 12T350 -14Q302 -14 259 -3T182 40Q153 68 137 99T114 175T108 288V602Q108 639 102 656T79 680T27 688V708Q48 707 82 706T155
705Q190 705 224 706T282 708V688Q248 687 231 681T207 657T201 602V271Q201 203 211 146T254 55T359 21Q435 21 476 54T534 147T551 280V592Q551 629 543 649T514 678T460 688V708Q478 707 507 706T562 705Q588 705 613 706T655 708ZM361 916Q384 878 433 843T548
784L543 770Q483 783 425 802T332 840Q304 821 257 802T161 770L156 784Q221 807 270 842T343 916H361Z" />
<glyph unicode="&#xdc;" horiz-adv-x="682" d="M655 708V688Q621 687 604 678T580 649T574 592V291Q574 221 565 169T533 79Q508 37 460 12T350 -14Q302 -14 259 -3T182 40Q153 68 137 99T114 175T108 288V602Q108 639 102 656T79 680T27 688V708Q48 707 82 706T155
705Q190 705 224 706T282 708V688Q248 687 231 681T207 657T201 602V271Q201 203 211 146T254 55T359 21Q435 21 476 54T534 147T551 280V592Q551 629 543 649T514 678T460 688V708Q478 707 507 706T562 705Q588 705 613 706T655 708ZM458 888Q481 888 498 871T516
830Q516 806 499 789T458 772Q434 772 417 789T400 830Q400 853 417 870T458 888ZM246 888Q269 888 286 871T304 830Q304 806 287 789T246 772Q222 772 205 789T188 830Q188 853 205 870T246 888Z" />
<glyph unicode="&#xdd;" horiz-adv-x="591" d="M588 708V688Q569 684 550 664T508 599L306 199H289L55 631Q35 668 22 677T-3 687V708Q17 707 38 706T85 705Q118 705 155 705T225 708V687Q200 687 181 681T156 659T165 614L334 290L326 284L459 549Q487 604 487
634T463 675T398 688V708Q427 707 457 706T513 705Q539 705 556 706T588 708ZM351 304V106Q351 70 357 52T380 28T432 20V0Q409 2 375 2T305 3Q266 3 232 3T177 0V20Q211 22 228 28T252 52T258 106V311L312 249L351 304ZM411 926Q431 939 447 936T472 919Q480 906
476 891T451 861Q430 848 403 838T339 813T250 772L243 785Q289 820 318 846T369 893T411 926Z" />
<glyph unicode="&#xde;" horiz-adv-x="580" d="M308 559Q429 559 489 503T549 364Q549 326 537 287T496 213T415 159T286 138H190Q190 138 190 148T190 158H276Q347 158 384 185T435 259T449 358Q449 447 412 493T283 540Q252 540 214 539T159 538L157 557Q204
557 247 558T308 559ZM297 708V688Q263 687 246 681T222 657T216 602V106Q216 70 222 52T245 28T297 20V0Q274 2 240 2T170 3Q131 3 97 3T42 0V20Q76 22 93 28T117 52T123 106V602Q123 639 117 656T94 680T42 688V708Q63 707 97 706T170 705Q205 705 239 706T297
708Z" />
<glyph unicode="&#xdf;" horiz-adv-x="584" d="M294 782Q380 782 425 744T471 639Q471 600 453 566T407 505T351 460T301 433Q365 419 419 383T508 294T542 175Q542 116 517 74T450 9T361 -14Q334 -14 306 -5T259 23T239 72Q239 96 252 111T291 126Q314 126 329
113T344 77Q344 59 334 46T301 25Q304 16 319 9T353 1Q376 1 399 15T437 64T453 156Q453 198 443 240T413 318T362 383T287 424Q279 419 269 414T250 409Q243 409 237 413T230 426Q230 445 253 445Q260 445 269 443T289 437Q339 476 360 523T381 635Q381 698 356
732T283 767Q265 767 243 757T204 717T187 624V-11Q165 -3 139 0T83 3Q68 3 53 3T21 0V21Q65 21 81 42T97 109V538Q97 628 122 681T191 758T294 782Z" />
<glyph unicode="&#xe0;" horiz-adv-x="498" d="M163 -7Q98 -7 69 25T39 112Q39 154 59 181T112 226T179 256T247 281T299 308T320 346V408Q320 450 308 472T274 501T227 509Q202 509 174 502T128 473Q147 469 161 453T175 412Q175 387 159 373T118 358Q89 358
76 376T62 418Q62 444 75 460T108 490Q131 506 167 517T250 529Q291 529 320 520T368 492Q394 468 402 434T410 351V73Q410 49 417 38T441 26Q455 26 465 32T486 47L497 30Q476 14 457 4T406 -7Q354 -7 337 20T320 82Q288 29 248 11T163 -7ZM207 33Q237 33 266
50T320 109V305Q305 283 274 270T209 242T151 200T127 124Q127 78 150 56T207 33ZM123 813Q135 822 151 820T183 798Q198 779 211 753T242 692T292 608L281 599Q242 641 212 667T161 713T123 751Q108 771 109 787T123 813Z" />
<glyph unicode="&#xe1;" horiz-adv-x="498" d="M163 -7Q98 -7 69 25T39 112Q39 154 59 181T112 226T179 256T247 281T299 308T320 346V408Q320 450 308 472T274 501T227 509Q202 509 174 502T128 473Q147 469 161 453T175 412Q175 387 159 373T118 358Q89 358
76 376T62 418Q62 444 75 460T108 490Q131 506 167 517T250 529Q291 529 320 520T368 492Q394 468 402 434T410 351V73Q410 49 417 38T441 26Q455 26 465 32T486 47L497 30Q476 14 457 4T406 -7Q354 -7 337 20T320 82Q288 29 248 11T163 -7ZM207 33Q237 33 266
50T320 109V305Q305 283 274 270T209 242T151 200T127 124Q127 78 150 56T207 33ZM353 813Q365 803 366 787T353 751Q338 732 316 713T265 668T195 599L184 608Q215 657 233 692T265 753T293 798Q308 818 324 820T353 813Z" />
<glyph unicode="&#xe2;" horiz-adv-x="498" d="M163 -7Q98 -7 69 25T39 112Q39 154 59 181T112 226T179 256T247 281T299 308T320 346V408Q320 450 308 472T274 501T227 509Q202 509 174 502T128 473Q147 469 161 453T175 412Q175 387 159 373T118 358Q89 358
76 376T62 418Q62 444 75 460T108 490Q131 506 167 517T250 529Q291 529 320 520T368 492Q394 468 402 434T410 351V73Q410 49 417 38T441 26Q455 26 465 32T486 47L497 30Q476 14 457 4T406 -7Q354 -7 337 20T320 82Q288 29 248 11T163 -7ZM207 33Q237 33 266
50T320 109V305Q305 283 274 270T209 242T151 200T127 124Q127 78 150 56T207 33ZM255 802Q275 752 319 706T422 630L414 616Q360 635 309 662T226 716Q201 689 161 662T78 616L70 630Q128 659 172 705T237 802H255Z" />
<glyph unicode="&#xe3;" horiz-adv-x="498" d="M163 -7Q98 -7 69 25T39 112Q39 154 59 181T112 226T179 256T247 281T299 308T320 346V408Q320 450 308 472T274 501T227 509Q202 509 174 502T128 473Q147 469 161 453T175 412Q175 387 159 373T118 358Q89 358
76 376T62 418Q62 444 75 460T108 490Q131 506 167 517T250 529Q291 529 320 520T368 492Q394 468 402 434T410 351V73Q410 49 417 38T441 26Q455 26 465 32T486 47L497 30Q476 14 457 4T406 -7Q354 -7 337 20T320 82Q288 29 248 11T163 -7ZM207 33Q237 33 266
50T320 109V305Q305 283 274 270T209 242T151 200T127 124Q127 78 150 56T207 33ZM172 768Q199 768 218 758T252 735T284 712T323 702Q344 702 363 714T400 755L414 748Q398 693 366 669T296 645Q269 645 250 655T215 678T183 702T144 712Q123 712 104 700T67 658L53
665Q69 721 101 744T172 768Z" />
<glyph unicode="&#xe4;" horiz-adv-x="498" d="M163 -7Q98 -7 69 25T39 112Q39 154 59 181T112 226T179 256T247 281T299 308T320 346V408Q320 450 308 472T274 501T227 509Q202 509 174 502T128 473Q147 469 161 453T175 412Q175 387 159 373T118 358Q89 358
76 376T62 418Q62 444 75 460T108 490Q131 506 167 517T250 529Q291 529 320 520T368 492Q394 468 402 434T410 351V73Q410 49 417 38T441 26Q455 26 465 32T486 47L497 30Q476 14 457 4T406 -7Q354 -7 337 20T320 82Q288 29 248 11T163 -7ZM207 33Q237 33 266
50T320 109V305Q305 283 274 270T209 242T151 200T127 124Q127 78 150 56T207 33ZM353 743Q376 743 393 726T411 685Q411 661 394 644T353 627Q329 627 312 644T295 685Q295 708 312 725T353 743ZM141 743Q164 743 181 726T199 685Q199 661 182 644T141 627Q117
627 100 644T83 685Q83 708 100 725T141 743Z" />
<glyph unicode="&#xe5;" horiz-adv-x="498" d="M163 -7Q98 -7 69 25T39 112Q39 154 59 181T112 226T179 256T247 281T299 308T320 346V408Q320 450 308 472T274 501T227 509Q202 509 174 502T128 473Q147 469 161 453T175 412Q175 387 159 373T118 358Q89 358
76 376T62 418Q62 444 75 460T108 490Q131 506 167 517T250 529Q291 529 320 520T368 492Q394 468 402 434T410 351V73Q410 49 417 38T441 26Q455 26 465 32T486 47L497 30Q476 14 457 4T406 -7Q354 -7 337 20T320 82Q288 29 248 11T163 -7ZM207 33Q237 33 266
50T320 109V305Q305 283 274 270T209 242T151 200T127 124Q127 78 150 56T207 33ZM246 791Q285 791 314 767T343 700Q343 657 314 633T246 608Q208 608 179 632T150 700Q150 742 179 766T246 791ZM246 770Q222 770 200 752T178 699Q178 664 200 647T246 629Q271
629 293 646T315 699Q315 734 293 752T246 770Z" />
<glyph unicode="&#xe6;" horiz-adv-x="745" d="M163 -7Q98 -7 69 25T39 112Q39 154 59 181T112 226T179 256T247 281T299 308T320 346V408Q320 450 308 472T274 501T227 509Q202 509 174 502T128 473Q147 469 161 453T175 412Q175 387 159 373T118 358Q89 358
76 376T62 418Q62 444 75 460T108 490Q131 506 167 517T250 529Q291 529 320 520T368 492Q393 468 400 433T408 350L347 123Q318 66 287 38T224 2T163 -7ZM207 33Q237 33 266 50T320 109V305Q305 283 274 270T209 242T151 200T127 124Q127 78 150 56T207 33ZM529
-14Q463 -14 417 17T347 106T323 245Q323 338 347 401T417 497T525 529Q608 529 655 476T702 309H379L378 328H606Q608 377 599 418T571 485T521 510Q479 510 447 464T409 318L412 314Q410 299 409 281T408 245Q408 177 428 128T481 54T549 28Q588 28 620 50T676
128L696 120Q686 87 664 56T608 6T529 -14Z" />
<glyph unicode="&#xe7;" horiz-adv-x="486" d="M279 529Q311 529 341 521T395 497Q418 482 430 463T442 420Q442 393 427 379T389 364Q367 364 351 377T334 414Q334 437 346 451T376 469Q366 487 341 499T286 511Q261 511 236 499T190 460T156 385T143 266Q143
178 163 126T215 52T287 29Q326 29 366 52T432 132L451 125Q441 93 418 61T358 7T267 -14Q205 -14 155 18T76 109T46 251Q46 333 75 395T158 493T279 529ZM265 6L239 -72Q252 -69 267 -67T298 -65Q326 -65 342 -77T359 -112Q359 -140 341 -156T296 -180T246 -188Q218
-188 198 -185T163 -177L167 -159Q172 -160 182 -161T205 -162Q234 -162 264 -153T295 -117Q295 -89 253 -89Q245 -89 230 -90T204 -96L238 6H265Z" />
<glyph unicode="&#xe8;" horiz-adv-x="506" d="M272 529Q360 529 409 476T459 309H106L105 328H363Q365 377 355 418T324 485T268 510Q222 510 187 464T144 318L147 314Q145 299 144 281T143 245Q143 177 165 128T222 54T296 28Q341 28 379 50T443 128L463 120Q452
87 427 56T364 6T276 -14Q204 -14 153 19T74 110T46 245Q46 333 74 396T153 494T272 529ZM148 813Q160 822 176 820T208 798Q223 779 236 753T267 692T317 608L306 599Q267 641 237 667T186 713T148 751Q133 771 134 787T148 813Z" />
<glyph unicode="&#xe9;" horiz-adv-x="506" d="M272 529Q360 529 409 476T459 309H106L105 328H363Q365 377 355 418T324 485T268 510Q222 510 187 464T144 318L147 314Q145 299 144 281T143 245Q143 177 165 128T222 54T296 28Q341 28 379 50T443 128L463 120Q452
87 427 56T364 6T276 -14Q204 -14 153 19T74 110T46 245Q46 333 74 396T153 494T272 529ZM378 813Q390 803 391 787T378 751Q363 732 341 713T290 668T220 599L209 608Q240 657 258 692T290 753T318 798Q333 818 349 820T378 813Z" />
<glyph unicode="&#xea;" horiz-adv-x="506" d="M272 529Q360 529 409 476T459 309H106L105 328H363Q365 377 355 418T324 485T268 510Q222 510 187 464T144 318L147 314Q145 299 144 281T143 245Q143 177 165 128T222 54T296 28Q341 28 379 50T443 128L463 120Q452
87 427 56T364 6T276 -14Q204 -14 153 19T74 110T46 245Q46 333 74 396T153 494T272 529ZM280 802Q300 752 344 706T447 630L439 616Q385 635 334 662T251 716Q226 689 186 662T103 616L95 630Q153 659 197 705T262 802H280Z" />
<glyph unicode="&#xeb;" horiz-adv-x="506" d="M272 529Q360 529 409 476T459 309H106L105 328H363Q365 377 355 418T324 485T268 510Q222 510 187 464T144 318L147 314Q145 299 144 281T143 245Q143 177 165 128T222 54T296 28Q341 28 379 50T443 128L463 120Q452
87 427 56T364 6T276 -14Q204 -14 153 19T74 110T46 245Q46 333 74 396T153 494T272 529ZM378 743Q401 743 418 726T436 685Q436 661 419 644T378 627Q354 627 337 644T320 685Q320 708 337 725T378 743ZM166 743Q189 743 206 726T224 685Q224 661 207 644T166
627Q142 627 125 644T108 685Q108 708 125 725T166 743Z" />
<glyph unicode="&#xec;" horiz-adv-x="293" d="M195 526V93Q195 51 212 36T271 21V0Q254 1 220 2T150 4Q116 4 81 3T29 0V21Q70 21 87 36T105 93V406Q105 451 89 472T29 494V515Q61 512 91 512Q120 512 146 515T195 526ZM274 813Q286 822 302 820T334 798Q349
779 362 753T393 692T443 608L432 599Q393 641 363 667T312 713T274 751Q259 771 260 787T274 813Z" />
<glyph unicode="&#xed;" horiz-adv-x="293" d="M195 526V93Q195 51 212 36T271 21V0Q254 1 220 2T150 4Q116 4 81 3T29 0V21Q70 21 87 36T105 93V406Q105 451 89 472T29 494V515Q61 512 91 512Q120 512 146 515T195 526ZM248 813Q260 803 261 787T248 751Q233
732 211 713T160 668T90 599L79 608Q110 657 128 692T160 753T188 798Q203 818 219 820T248 813Z" />
<glyph unicode="&#xee;" horiz-adv-x="293" d="M195 526V93Q195 51 212 36T271 21V0Q254 1 220 2T150 4Q116 4 81 3T29 0V21Q70 21 87 36T105 93V406Q105 451 89 472T29 494V515Q61 512 91 512Q120 512 146 515T195 526ZM406 802Q426 752 470 706T573 630L565
616Q511 635 460 662T377 716Q352 689 312 662T229 616L221 630Q279 659 323 705T388 802H406Z" />
<glyph unicode="&#xef;" horiz-adv-x="293" d="M195 526V93Q195 51 212 36T271 21V0Q254 1 220 2T150 4Q116 4 81 3T29 0V21Q70 21 87 36T105 93V406Q105 451 89 472T29 494V515Q61 512 91 512Q120 512 146 515T195 526ZM504 743Q527 743 544 726T562 685Q562
661 545 644T504 627Q480 627 463 644T446 685Q446 708 463 725T504 743ZM292 743Q315 743 332 726T350 685Q350 661 333 644T292 627Q268 627 251 644T234 685Q234 708 251 725T292 743Z" />
<glyph unicode="&#xf0;" horiz-adv-x="554" d="M138 782Q235 744 316 683T448 529T498 302Q498 195 466 125T381 20T270 -14Q205 -14 154 16T75 106T46 255Q46 321 70 384T143 488T264 529Q340 529 378 485T424 346L403 342Q399 414 378 449T328 496T271 508Q236
508 207 484T160 404T143 253Q143 163 160 109T205 31T265 6Q300 6 331 32T383 122T403 302Q403 417 380 495T318 624T230 708T130 765L138 782ZM279 693L296 679L97 582L88 600L279 693ZM435 769L444 751L296 679L279 693L435 769Z" />
<glyph unicode="&#xf1;" horiz-adv-x="597" d="M365 529Q403 529 428 519T471 491Q490 471 498 441T506 360V93Q506 51 523 36T582 21V0Q565 1 530 2T462 4Q429 4 398 3T350 0V21Q386 21 401 36T416 93V382Q416 413 411 439T389 481T335 497Q272 497 234 445T195
315V93Q195 51 210 36T261 21V0Q245 1 214 2T149 4Q116 4 81 3T29 0V21Q70 21 87 36T105 93V406Q105 451 89 472T29 494V515Q61 512 91 512Q120 512 146 515T195 526V408Q221 476 267 502T365 529ZM232 768Q259 768 278 758T312 735T344 712T383 702Q404 702 423
714T460 755L474 748Q458 693 426 669T356 645Q329 645 310 655T275 678T243 702T204 712Q183 712 164 700T127 658L113 665Q129 721 161 744T232 768Z" />
<glyph unicode="&#xf2;" horiz-adv-x="548" d="M274 529Q338 529 389 501T470 413T501 257Q501 161 471 102T389 14T274 -14Q211 -14 160 14T78 101T47 257Q47 353 77 413T159 501T274 529ZM274 509Q217 509 181 450T144 257Q144 123 180 65T274 6Q331 6 367 64T404
257Q404 391 368 450T274 509ZM154 813Q166 822 182 820T214 798Q229 779 242 753T273 692T323 608L312 599Q273 641 243 667T192 713T154 751Q139 771 140 787T154 813Z" />
<glyph unicode="&#xf3;" horiz-adv-x="548" d="M274 529Q338 529 389 501T470 413T501 257Q501 161 471 102T389 14T274 -14Q211 -14 160 14T78 101T47 257Q47 353 77 413T159 501T274 529ZM274 509Q217 509 181 450T144 257Q144 123 180 65T274 6Q331 6 367 64T404
257Q404 391 368 450T274 509ZM384 813Q396 803 397 787T384 751Q369 732 347 713T296 668T226 599L215 608Q246 657 264 692T296 753T324 798Q339 818 355 820T384 813Z" />
<glyph unicode="&#xf4;" horiz-adv-x="548" d="M274 529Q338 529 389 501T470 413T501 257Q501 161 471 102T389 14T274 -14Q211 -14 160 14T78 101T47 257Q47 353 77 413T159 501T274 529ZM274 509Q217 509 181 450T144 257Q144 123 180 65T274 6Q331 6 367 64T404
257Q404 391 368 450T274 509ZM286 802Q306 752 350 706T453 630L445 616Q391 635 340 662T257 716Q232 689 192 662T109 616L101 630Q159 659 203 705T268 802H286Z" />
<glyph unicode="&#xf5;" horiz-adv-x="548" d="M274 529Q338 529 389 501T470 413T501 257Q501 161 471 102T389 14T274 -14Q211 -14 160 14T78 101T47 257Q47 353 77 413T159 501T274 529ZM274 509Q217 509 181 450T144 257Q144 123 180 65T274 6Q331 6 367 64T404
257Q404 391 368 450T274 509ZM203 768Q230 768 249 758T283 735T315 712T354 702Q375 702 394 714T431 755L445 748Q429 693 397 669T327 645Q300 645 281 655T246 678T214 702T175 712Q154 712 135 700T98 658L84 665Q100 721 132 744T203 768Z" />
<glyph unicode="&#xf6;" horiz-adv-x="548" d="M274 529Q338 529 389 501T470 413T501 257Q501 161 471 102T389 14T274 -14Q211 -14 160 14T78 101T47 257Q47 353 77 413T159 501T274 529ZM274 509Q217 509 181 450T144 257Q144 123 180 65T274 6Q331 6 367 64T404
257Q404 391 368 450T274 509ZM384 743Q407 743 424 726T442 685Q442 661 425 644T384 627Q360 627 343 644T326 685Q326 708 343 725T384 743ZM172 743Q195 743 212 726T230 685Q230 661 213 644T172 627Q148 627 131 644T114 685Q114 708 131 725T172 743Z" />
<glyph unicode="&#xf7;" horiz-adv-x="649" d="M324 266Q347 266 363 250T380 211Q380 188 364 172T324 155Q302 155 286 171T269 211Q269 234 285 250T324 266ZM324 554Q347 554 363 538T380 499Q380 476 364 460T324 444Q302 444 286 460T269 499Q269 522 285
538T324 554ZM574 370V340H73V370H574Z" />
<glyph unicode="&#xf8;" horiz-adv-x="548" d="M274 529Q338 529 389 501T470 413T501 257Q501 161 471 102T389 14T274 -14Q211 -14 160 14T78 101T47 257Q47 353 77 413T159 501T274 529ZM274 509Q217 509 181 450T144 257Q144 123 180 65T274 6Q331 6 367 64T404
257Q404 391 368 450T274 509ZM648 466L663 446L423 63L407 84L648 466ZM397 84L413 63L320 -73L299 -59L397 84ZM741 587L760 574L673 446L658 466L741 587Z" />
<glyph unicode="&#xf9;" horiz-adv-x="581" d="M483 526V108Q483 63 499 42T559 20V-1Q528 2 497 2Q468 2 442 -1T393 -12V106Q368 41 323 14T229 -14Q194 -14 168 -4T125 24Q106 44 99 76T92 155V406Q92 451 76 472T16 494V515Q48 512 78 512Q107 512 133 515T182
526V133Q182 102 186 76T206 34T258 18Q317 18 355 70T393 199V406Q393 451 377 472T317 494V515Q349 512 379 512Q408 512 434 515T483 526ZM157 813Q169 822 185 820T217 798Q232 779 245 753T276 692T326 608L315 599Q276 641 246 667T195 713T157 751Q142 771
143 787T157 813Z" />
<glyph unicode="&#xfa;" horiz-adv-x="581" d="M483 526V108Q483 63 499 42T559 20V-1Q528 2 497 2Q468 2 442 -1T393 -12V106Q368 41 323 14T229 -14Q194 -14 168 -4T125 24Q106 44 99 76T92 155V406Q92 451 76 472T16 494V515Q48 512 78 512Q107 512 133 515T182
526V133Q182 102 186 76T206 34T258 18Q317 18 355 70T393 199V406Q393 451 377 472T317 494V515Q349 512 379 512Q408 512 434 515T483 526ZM387 813Q399 803 400 787T387 751Q372 732 350 713T299 668T229 599L218 608Q249 657 267 692T299 753T327 798Q342 818
358 820T387 813Z" />
<glyph unicode="&#xfb;" horiz-adv-x="581" d="M483 526V108Q483 63 499 42T559 20V-1Q528 2 497 2Q468 2 442 -1T393 -12V106Q368 41 323 14T229 -14Q194 -14 168 -4T125 24Q106 44 99 76T92 155V406Q92 451 76 472T16 494V515Q48 512 78 512Q107 512 133 515T182
526V133Q182 102 186 76T206 34T258 18Q317 18 355 70T393 199V406Q393 451 377 472T317 494V515Q349 512 379 512Q408 512 434 515T483 526ZM289 802Q309 752 353 706T456 630L448 616Q394 635 343 662T260 716Q235 689 195 662T112 616L104 630Q162 659 206 705T271
802H289Z" />
<glyph unicode="&#xfc;" horiz-adv-x="581" d="M483 526V108Q483 63 499 42T559 20V-1Q528 2 497 2Q468 2 442 -1T393 -12V106Q368 41 323 14T229 -14Q194 -14 168 -4T125 24Q106 44 99 76T92 155V406Q92 451 76 472T16 494V515Q48 512 78 512Q107 512 133 515T182
526V133Q182 102 186 76T206 34T258 18Q317 18 355 70T393 199V406Q393 451 377 472T317 494V515Q349 512 379 512Q408 512 434 515T483 526ZM387 743Q410 743 427 726T445 685Q445 661 428 644T387 627Q363 627 346 644T329 685Q329 708 346 725T387 743ZM175
743Q198 743 215 726T233 685Q233 661 216 644T175 627Q151 627 134 644T117 685Q117 708 134 725T175 743Z" />
<glyph unicode="&#xfd;" horiz-adv-x="504" d="M494 515V495Q475 493 459 478T429 425L265 -5H248L64 438Q45 477 27 485T-4 494V515Q18 512 42 511T94 509Q125 509 159 511T224 515V494Q199 494 180 491T155 470T167 410L290 105L284 103L398 401Q417 451 402
471T334 495V515Q360 514 377 513T418 512Q441 512 459 513T494 515ZM265 -5L231 -92Q212 -141 188 -162Q172 -177 150 -182T110 -188Q91 -188 76 -181T51 -161T42 -128Q42 -104 56 -90T95 -75Q116 -75 131 -87T146 -122Q146 -139 138 -150T119 -167Q121 -168 122
-168T125 -168Q152 -168 173 -150T210 -90L246 3L265 -5ZM361 813Q373 803 374 787T361 751Q346 732 324 713T273 668T203 599L192 608Q223 657 241 692T273 753T301 798Q316 818 332 820T361 813Z" />
<glyph unicode="&#xfe;" horiz-adv-x="559" d="M166 783V-88Q166 -131 191 -145T262 -160V-181Q240 -180 201 -179T118 -177Q87 -177 57 -178T10 -181V-160Q46 -160 61 -147T76 -98V663Q76 708 60 729T0 751V772Q32 769 62 769Q91 769 117 772T166 783ZM326 529Q405
529 458 466T512 281Q512 209 489 141T415 30T283 -14Q236 -14 202 8T155 61L165 75Q179 47 205 28T272 9Q328 9 359 44T402 137T415 267Q415 347 402 398T363 474T299 499Q250 499 210 459T159 336L147 350Q158 435 207 482T326 529Z" />
<glyph unicode="&#xff;" horiz-adv-x="504" d="M494 515V495Q475 493 459 478T429 425L265 -5H248L64 438Q45 477 27 485T-4 494V515Q18 512 42 511T94 509Q125 509 159 511T224 515V494Q199 494 180 491T155 470T167 410L290 105L284 103L398 401Q417 451 402
471T334 495V515Q360 514 377 513T418 512Q441 512 459 513T494 515ZM265 -5L231 -92Q212 -141 188 -162Q172 -177 150 -182T110 -188Q91 -188 76 -181T51 -161T42 -128Q42 -104 56 -90T95 -75Q116 -75 131 -87T146 -122Q146 -139 138 -150T119 -167Q121 -168 122
-168T125 -168Q152 -168 173 -150T210 -90L246 3L265 -5ZM361 743Q384 743 401 726T419 685Q419 661 402 644T361 627Q337 627 320 644T303 685Q303 708 320 725T361 743ZM149 743Q172 743 189 726T207 685Q207 661 190 644T149 627Q125 627 108 644T91 685Q91
708 108 725T149 743Z" />
<glyph unicode="&#x2013;" horiz-adv-x="571" d="M512 289V249H59V289H512Z" />
<glyph unicode="&#x2014;" horiz-adv-x="862" d="M803 289V249H59V289H803Z" />
<glyph unicode="&#x2018;" horiz-adv-x="248" d="M131 470Q109 470 95 479T72 502Q61 518 58 537T55 568Q55 617 80 657T158 722L167 704Q136 691 114 663T91 606Q91 594 94 585Q110 598 131 598Q157 598 176 581T195 534Q195 506 176 488T131 470Z" />
<glyph unicode="&#x2019;" horiz-adv-x="245" d="M118 722Q140 722 154 713T177 690Q188 674 191 655T194 624Q194 575 169 535T91 470L82 488Q113 501 135 529T158 586Q158 598 155 607Q139 594 118 594Q92 594 73 611T54 658Q54 686 73 704T118 722Z" />
<glyph unicode="&#x201a;" horiz-adv-x="261" d="M126 114Q148 114 162 105T185 82Q196 66 199 47T202 16Q202 -33 177 -73T99 -138L90 -120Q121 -107 143 -79T166 -22Q166 -10 163 -1Q147 -14 126 -14Q100 -14 81 3T62 50Q62 78 81 96T126 114Z" />
<glyph unicode="&#x201c;" horiz-adv-x="418" d="M131 470Q109 470 95 479T72 502Q61 518 58 537T55 568Q55 617 80 657T158 722L167 704Q136 691 114 663T91 606Q91 594 94 585Q110 598 131 598Q157 598 176 581T195 534Q195 506 176 488T131 470ZM301 470Q279
470 265 479T242 502Q231 518 228 537T225 568Q225 617 250 657T328 722L337 704Q306 691 284 663T261 606Q261 594 264 585Q280 598 301 598Q327 598 346 581T365 534Q365 506 346 488T301 470Z" />
<glyph unicode="&#x201d;" horiz-adv-x="415" d="M288 722Q310 722 324 713T347 690Q358 674 361 655T364 624Q364 575 339 535T261 470L252 488Q283 501 305 529T328 586Q328 598 325 607Q309 594 288 594Q262 594 243 611T224 658Q224 686 243 704T288 722ZM118
722Q140 722 154 713T177 690Q188 674 191 655T194 624Q194 575 169 535T91 470L82 488Q113 501 135 529T158 586Q158 598 155 607Q139 594 118 594Q92 594 73 611T54 658Q54 686 73 704T118 722Z" />
<glyph unicode="&#x201e;" horiz-adv-x="431" d="M296 114Q318 114 332 105T355 82Q366 66 369 47T372 16Q372 -33 347 -73T269 -138L260 -120Q291 -107 313 -79T336 -22Q336 -10 333 -1Q317 -14 296 -14Q270 -14 251 3T232 50Q232 78 251 96T296 114ZM126 114Q148
114 162 105T185 82Q196 66 199 47T202 16Q202 -33 177 -73T99 -138L90 -120Q121 -107 143 -79T166 -22Q166 -10 163 -1Q147 -14 126 -14Q100 -14 81 3T62 50Q62 78 81 96T126 114Z" />
<glyph unicode="&#x2022;" horiz-adv-x="441" d="M220 412Q260 412 292 393T343 341T363 269Q363 230 344 198T292 146T220 127Q181 127 149 146T97 197T78 269Q78 309 97 341T148 392T220 412Z" />
<glyph unicode="&#x2039;" horiz-adv-x="327" d="M262 529L279 522Q255 457 228 410T172 327T107 261Q142 231 171 194T228 108T279 -7L262 -14Q221 78 167 145T32 257V258Q112 302 166 369T262 529Z" />
<glyph unicode="&#x203a;" horiz-adv-x="327" d="M65 529Q106 437 161 370T295 258V257Q216 213 161 146T65 -14L48 -7Q73 59 99 106T156 188T220 254Q186 284 156 321T100 407T48 522L65 529Z" />
</font>
</defs>
</svg>
